找回密码

蓝光电影网

查看: 9|回复: 0

[恐怖] 勾魂妖女 Queens.of.Evil.1970.ITALIAN.1080p.BluRay.x264.FLAC.2.0-HANDJOB 7.71GB

[复制链接]
蓝光币
382
发表于 2021-2-16 09:01:49 | 显示全部楼层 |阅读模式


◎译  名 勾魂妖女/Delitto del diavolo, Il/Queens of Evil/火の森
◎片  名 Le Regine
◎年  代 1970
◎产  地 法国,意大利
◎类  别 可骇
◎语  言 意大利语
◎上映日期 1970-12-11
◎IMDb评分  6.2/10 from 280 users
◎IMDb链接  https://www.imdb.com/title/tt0066980/
◎豆瓣评分 /10 from 0 users
◎豆瓣链接 https://movie.douban.com/subject/1295096/
◎片  长 85 分钟(cut version)
◎主  演 西尔维娅·蒙蒂 Silvia Monti
       Geraldine Hooper
       雷·洛夫洛克 Ray Lovelock
◎标  签 西尔维娅·蒙蒂 | 动漫 | 1970s | 记号 | 法国 | 意大利电影 | 可骇 | 二次元
◎简  介


  暂无相关剧情先容
  1. Video
  2. ID                                       : 1
  3. Format                                   : AVC
  4. Format/Info                              : Advanced Video Codec
  5. Format profile                           : [email protected]
  6. Format settings                          : CABAC / 4 Ref Frames
  7. Format settings, CABAC                   : Yes
  8. Format settings, Reference frames        : 4 frames
  9. Codec ID                                 : V_MPEG4/ISO/AVC
  10. Duration                                 : 1 h 28 min
  11. Bit rate                                 : 11.1 Mb/s
  12. Width                                    : 1 920 pixels
  13. Height                                   : 1 032 pixels
  14. Display aspect ratio                     : 1.85:1
  15. Frame rate mode                          : Constant
  16. Frame rate                               : 24.000 FPS
  17. Color space                              : YUV
  18. Chroma subsampling                       : 4:2:0
  19. Bit depth                                : 8 bits
  20. Scan type                                : Progressive
  21. Bits/(Pixel*Frame)                       : 0.233
  22. Stream size                              : 6.82 GiB (88%)
  23. Writing library                          : x264 core 157 r2935 545de2f
  24. Encoding settings                        : cabac=1 / ref=4 / deblock=1:-3:-3 / analyse=0x3:0x133 / me=umh / subme=10 / psy=1 / psy_rd=1.00:0.00 / mixed_ref=1 / me_range=32 / chroma_me=1 / trellis=2 / 8x8dct=1 / cqm=0 / deadzone=21,11 / fast_pskip=0 / chroma_qp_offset=-2 / threads=18 / lookahead_threads=4 / sliced_threads=0 / nr=0 / decimate=0 / interlaced=0 / bluray_compat=0 / constrained_intra=0 / bframes=16 / b_pyramid=2 / b_adapt=2 / b_bias=0 / direct=3 / weightb=1 / open_gop=0 / weightp=2 / keyint=240 / keyint_min=24 / scenecut=40 / intra_refresh=0 / rc_lookahead=60 / rc=crf / mbtree=0 / crf=21.2 / qcomp=0.60 / qpmin=0 / qpmax=69 / qpstep=4 / vbv_maxrate=62500 / vbv_bufsize=78125 / crf_max=0.0 / nal_hrd=none / filler=0 / ip_ratio=1.40 / pb_ratio=1.30 / aq=2:1.00
  25. Default                                  : Yes
  26. Forced                                   : No
  27. Color range                              : Limited
  28. Color primaries                          : BT.709
  29. Transfer characteristics                 : BT.709
  30. Matrix coefficients                      : BT.709
  31. Audio #1
  32. ID                                       : 2
  33. Format                                   : FLAC
  34. Format/Info                              : Free Lossless Audio Codec
  35. Codec ID                                 : A_FLAC
  36. Duration                                 : 1 h 28 min
  37. Bit rate mode                            : Variable
  38. Bit rate                                 : 676 kb/s
  39. Channel(s)                               : 2 channels
  40. Channel layout                           : L R
  41. Sampling rate                            : 48.0 kHz
  42. Frame rate                               : 11.719 FPS (4096 SPF)
  43. Bit depth                                : 16 bits
  44. Compression mode                         : Lossless
  45. Stream size                              : 426 MiB (5%)
  46. Writing library                          : libFLAC 1.2.1 (UTC 2007-09-17)
  47. Language                                 : Italian
  48. Default                                  : Yes
  49. Forced                                   : No
  50. Audio #2
  51. ID                                       : 3
  52. Format                                   : FLAC
  53. Format/Info                              : Free Lossless Audio Codec
  54. Codec ID                                 : A_FLAC
  55. Duration                                 : 1 h 28 min
  56. Bit rate mode                            : Variable
  57. Bit rate                                 : 679 kb/s
  58. Channel(s)                               : 2 channels
  59. Channel layout                           : L R
  60. Sampling rate                            : 48.0 kHz
  61. Frame rate                               : 11.719 FPS (4096 SPF)
  62. Bit depth                                : 16 bits
  63. Compression mode                         : Lossless
  64. Stream size                              : 428 MiB (5%)
  65. Title                                    : English Dub
  66. Writing library                          : libFLAC 1.2.1 (UTC 2007-09-17)
  67. Language                                 : English
  68. Default                                  : No
  69. Forced                                   : No
  70. Audio #3
  71. ID                                       : 4
  72. Format                                   : AAC LC
  73. Format/Info                              : Advanced Audio Codec Low Complexity
  74. Codec ID                                 : A_AAC-2
  75. Duration                                 : 1 h 28 min
  76. Bit rate                                 : 78.9 kb/s
  77. Channel(s)                               : 2 channels
  78. Channel layout                           : L R
  79. Sampling rate                            : 48.0 kHz
  80. Frame rate                               : 46.875 FPS (1024 SPF)
  81. Compression mode                         : Lossy
  82. Stream size                              : 49.7 MiB (1%)
  83. Title                                    : Commentary with Kat Ellinger and Samm Deighan
  84. Language                                 : English
  85. Default                                  : No
  86. Forced                                   : No
  87. Text #1
  88. ID                                       : 5
  89. Format                                   : UTF-8
  90. Codec ID                                 : S_TEXT/UTF8
  91. Codec ID/Info                            : UTF-8 Plain Text
  92. Duration                                 : 1 h 22 min
  93. Bit rate                                 : 22 b/s
  94. Count of elements                        : 443
  95. Stream size                              : 13.7 KiB (0%)
  96. Title                                    : SRT
  97. Language                                 : English
  98. Default                                  : Yes
  99. Forced                                   : No
  100. Text #2
  101. ID                                       : 6
  102. Format                                   : PGS
  103. Muxing mode                              : zlib
  104. Codec ID                                 : S_HDMV/PGS
  105. Codec ID/Info                            : Picture based subtitle format used on BDs/HD-DVDs
  106. Duration                                 : 1 h 22 min
  107. Bit rate                                 : 13.5 kb/s
  108. Count of elements                        : 890
  109. Stream size                              : 7.93 MiB (0%)
  110. Language                                 : English
  111. Default                                  : No
  112. Forced                                   : No
  113. Menu
  114. 00:00:00.000                             : en:Chapter 01
  115. 00:10:38.125                             : en:Chapter 02
  116. 00:16:53.542                             : en:Chapter 03
  117. 00:25:51.250                             : en:Chapter 04
  118. 00:33:51.292                             : en:Chapter 05
  119. 00:42:15.292                             : en:Chapter 06
  120. 00:53:41.875                             : en:Chapter 07
  121. 01:04:56.750                             : en:Chapter 08
  122. 01:10:59.042                             : en:Chapter 09
  123. 01:19:06.417                             : en:Chapter 10
复制代码






                                       
                                       

                                       
                                       
                                       




回复

使用道具 举报

懒得打字嘛,点击右侧快捷回复 【右侧内容,后台自定义】
您需要登录后才可以回帖 登录 | 立即加入

本版积分规则

Archiver|小黑屋| 蓝光电影网 |网站地图

Copyright © 2021 Comsenz Inc. Powered by 蓝光电影网

蓝光电影网

本站内容由用户自主分享和转载自互联网,转载目的在于传递更多信息,并不代表本网赞同其观点和对其真实性负责。

如有侵权、违反国家法律政策行为,请联系我们,我们会第一时间及时清除和处理!

举报反馈邮箱:[email protected]

快速回复 返回顶部 返回列表