找回密码

蓝光电影网

查看: 8|回复: 0

[惊悚] 冬脊/如履薄冰 Winter.Ridge.2018.720p.BluRay.x264-GETiT 1.35GB

[复制链接]
蓝光币
426
发表于 2020-11-2 08:42:43 | 显示全部楼层 |阅读模式


◎译  名 冬脊/小心翼翼
◎片  名 Winter Ridge
◎年  代 2018
◎产  地 英国
◎类  别 惊悚
◎语  言 英语
◎上映日期 2018-09-05(英国)
◎IMDb评分  4.3/10 from 833 users
◎IMDb链接  https://www.imdb.com/title/tt5973658/
◎豆瓣评分 5.0/10 from 135 users
◎豆瓣链接 https://movie.douban.com/subject/30328639/
◎片  长 86分钟
◎主  演 马特·霍金斯 Matt Hookings
       奥尔雯·凯瑟琳·凯莉 Olwen Catherine Kelly
       汉娜·沃丁厄姆 Hannah Waddingham
       阿兰·福德 Alan Ford
◎标  签 犯罪 | 英国 | 悬疑 | 2018 | 英国电影 | 惊悚 | 人性 | 汉娜·沃丁厄姆
◎简  介


  一位年轻的侦察在他的妻子昏迷不醒的同时还在追捕一个连环杀手后被撕裂。
  1. Video
  2. ID                                       : 1
  3. Format                                   : AVC
  4. Format/Info                              : Advanced Video Codec
  5. Format profile                           : [email protected]
  6. Format settings                          : CABAC / 8 Ref Frames
  7. Format settings, CABAC                   : Yes
  8. Format settings, Reference frames        : 8 frames
  9. Codec ID                                 : V_MPEG4/ISO/AVC
  10. Duration                                 : 1 h 26 min
  11. Bit rate                                 : 1 581 kb/s
  12. Width                                    : 1 280 pixels
  13. Height                                   : 534 pixels
  14. Display aspect ratio                     : 2.40:1
  15. Frame rate mode                          : Constant
  16. Frame rate                               : 24.000 FPS
  17. Color space                              : YUV
  18. Chroma subsampling                       : 4:2:0
  19. Bit depth                                : 8 bits
  20. Scan type                                : Progressive
  21. Bits/(Pixel*Frame)                       : 0.096
  22. Stream size                              : 980 MiB (71%)
  23. Writing library                          : x264 core 161 r3018 db0d417
  24. Encoding settings                        : cabac=1 / ref=8 / deblock=1:-3:-3 / analyse=0x3:0x133 / me=umh / subme=9 / psy=1 / psy_rd=1.00:0.00 / mixed_ref=1 / me_range=16 / chroma_me=1 / trellis=2 / 8x8dct=1 / cqm=0 / deadzone=21,11 / fast_pskip=1 / chroma_qp_offset=-2 / threads=17 / lookahead_threads=1 / sliced_threads=0 / nr=0 / decimate=1 / interlaced=0 / bluray_compat=0 / constrained_intra=0 / bframes=3 / b_pyramid=2 / b_adapt=2 / b_bias=0 / direct=3 / weightb=1 / open_gop=0 / weightp=2 / keyint=250 / keyint_min=24 / scenecut=40 / intra_refresh=0 / rc_lookahead=60 / rc=crf / mbtree=1 / crf=17.0 / qcomp=0.60 / qpmin=0 / qpmax=69 / qpstep=4 / ip_ratio=1.40 / aq=3:0.80
  25. Language                                 : English
  26. Default                                  : Yes
  27. Forced                                   : No
  28. Color range                              : Limited
  29. Matrix coefficients                      : BT.709

  30. Audio
  31. ID                                       : 2
  32. Format                                   : AC-3
  33. Format/Info                              : Audio Coding 3
  34. Commercial name                          : Dolby Digital
  35. Codec ID                                 : A_AC3
  36. Duration                                 : 1 h 26 min
  37. Bit rate mode                            : Constant
  38. Bit rate                                 : 640 kb/s
  39. Channel(s)                               : 6 channels
  40. Channel layout                           : L R C LFE Ls Rs
  41. Sampling rate                            : 48.0 kHz
  42. Frame rate                               : 31.250 FPS (1536 SPF)
  43. Compression mode                         : Lossy
  44. Stream size                              : 397 MiB (29%)
  45. Title                                    : ac3
  46. Language                                 : English
  47. Service kind                             : Complete Main
  48. Default                                  : Yes
  49. Forced                                   : No

  50. Menu
  51. 00:00:00.000                             : en:00:00:00.000
  52. 00:10:18.000                             : en:00:10:18.000
  53. 00:20:40.000                             : en:00:20:40.000
  54. 00:31:50.000                             : en:00:31:50.000
  55. 00:45:07.000                             : en:00:45:07.000
  56. 00:55:16.000                             : en:00:55:16.000
  57. 01:05:29.000                             : en:01:05:29.000
  58. 01:15:18.000                             : en:01:15:18.000
  59. 01:20:47.000                             : en:01:20:47.000
复制代码



                                       
                                       

                                       
                                       
                                       




回复

使用道具 举报

懒得打字嘛,点击右侧快捷回复 【右侧内容,后台自定义】
您需要登录后才可以回帖 登录 | 立即加入

本版积分规则

Archiver|小黑屋| 蓝光电影网 |网站地图

Copyright © 2021 Comsenz Inc. Powered by 蓝光电影网

蓝光电影网

本站内容由用户自主分享和转载自互联网,转载目的在于传递更多信息,并不代表本网赞同其观点和对其真实性负责。

如有侵权、违反国家法律政策行为,请联系我们,我们会第一时间及时清除和处理!

举报反馈邮箱:[email protected]

快速回复 返回顶部 返回列表