找回密码

蓝光电影网

查看: 10|回复: 0

[科幻] 同步/共时 Synchronic.2019.1080p.BluRay.x264-BLOW 8.74GB

[复制链接]
蓝光币
382
发表于 2021-1-21 08:57:00 | 显示全部楼层 |阅读模式
[img][/img]

◎译  名 同步/共时/药命时空(台)
◎片  名 Synchronic
◎年  代 2019
◎产  地 美国
◎类  别 科幻 / 可骇
◎语  言 英语
◎上映日期 2019-09-07(多伦多电影节) / 2020-10-23(美国)
◎IMDb评分  6.2/10 from 4374 users
◎IMDb链接  https://www.imdb.com/title/tt9016974/
◎豆瓣评分 5.8/10 from 603 users
◎豆瓣链接 https://movie.douban.com/subject/30328589/
◎片  长 101分钟
◎导  演 贾斯汀·本森 Justin Benson / 艾伦·穆尔黑德 Aaron Moorhead
◎编  剧 贾斯汀·本森 Justin Benson
◎主  演 詹米·多南 Jamie Dornan
       安东尼·麦凯 Anthony Mackie
       艾丽·艾恩奈兹 Ally Ioannides
       小比尔·奥伯斯特 Bill Oberst Jr.
       马丁·巴特斯·布拉德福德 Martin Bats Bradford
       劳伦斯·特纳 Lawrence Turner
       亚伦·格罗本 Aaron Groben
       亚当·J·耶安德 Adam J. Yeend
       Jean-Pierre Vertus
       拉米兹·蒙塞夫 Ramiz Monsef
◎标  签 科幻 | 惊悚 | 美国 | 2019 | 美国电影 | 电影 | 贾斯汀·本森 | 詹米·多南
◎简  介


  安东尼·麦凯、詹米·多南加盟科幻惊悚片[同步](Synchronic,暂译)。艾伦·穆尔黑德、贾斯汀·本森([无尽])执导,贾斯汀·本森操刀剧本。麦凯、多南在片中饰演新奥尔良两名医护职员,一种古怪药物的出现致使了一系列可骇灭亡事务,两人的生活也被完全打乱。XYZ Films负责该片国际刊行。
  1. Video
  2. ID                                       : 1
  3. Format                                   : AVC
  4. Format/Info                              : Advanced Video Codec
  5. Format profile                           : [email protected]
  6. Format settings                          : CABAC / 5 Ref Frames
  7. Format settings, CABAC                   : Yes
  8. Format settings, Reference frames        : 5 frames
  9. Codec ID                                 : V_MPEG4/ISO/AVC
  10. Duration                                 : 1 h 41 min
  11. Bit rate                                 : 9 913 kb/s
  12. Width                                    : 1 920 pixels
  13. Height                                   : 804 pixels
  14. Display aspect ratio                     : 2.40:1
  15. Frame rate mode                          : Constant
  16. Frame rate                               : 23.976 (24000/1001/189150) FPS
  17. Color space                              : YUV
  18. Chroma subsampling                       : 4:2:0
  19. Bit depth                                : 8 bits
  20. Scan type                                : Progressive
  21. Bits/(Pixel*Frame)                       : 0.268
  22. Stream size                              : 7.05 GiB (81%)
  23. Writing library                          : x264 core 161 r3033 0d754ec
  24. Encoding settings                        : cabac=1 / ref=5 / deblock=1:-3:-3 / analyse=0x3:0x133 / me=umh / subme=9 / psy=1 / psy_rd=1.00:0.00 / mixed_ref=1 / me_range=16 / chroma_me=1 / trellis=2 / 8x8dct=1 / cqm=0 / deadzone=21,11 / fast_pskip=0 / chroma_qp_offset=-2 / threads=24 / lookahead_threads=2 / sliced_threads=0 / nr=0 / decimate=0 / interlaced=0 / bluray_compat=0 / constrained_intra=0 / bframes=3 / b_pyramid=2 / b_adapt=2 / b_bias=0 / direct=3 / weightb=1 / open_gop=0 / weightp=2 / keyint=250 / keyint_min=23 / scenecut=40 / intra_refresh=0 / rc=crf / mbtree=0 / crf=20.0 / qcomp=0.60 / qpmin=0 / qpmax=69 / qpstep=4 / ip_ratio=1.40 / pb_ratio=1.30 / aq=3:0.70
  25. Language                                 : English
  26. Default                                  : Yes
  27. Forced                                   : No
  28. Color range                              : Limited
  29. Matrix coefficients                      : BT.709

  30. Audio
  31. ID                                       : 2
  32. Format                                   : DTS XLL
  33. Format/Info                              : Digital Theater Systems
  34. Commercial name                          : DTS-HD Master Audio
  35. Codec ID                                 : A_DTS
  36. Duration                                 : 1 h 41 min
  37. Bit rate mode                            : Variable
  38. Bit rate                                 : 2 352 kb/s
  39. Channel(s)                               : 6 channels
  40. Channel layout                           : C L R Ls Rs LFE
  41. Sampling rate                            : 48.0 kHz
  42. Frame rate                               : 93.750 FPS (512 SPF)
  43. Bit depth                                : 16 bits
  44. Compression mode                         : Lossless
  45. Stream size                              : 1.67 GiB (19%)
  46. Language                                 : English
  47. Default                                  : Yes
  48. Forced                                   : No

  49. Text #1
  50. ID                                       : 3
  51. Format                                   : PGS
  52. Muxing mode                              : zlib
  53. Codec ID                                 : S_HDMV/PGS
  54. Codec ID/Info                            : Picture based subtitle format used on BDs/HD-DVDs
  55. Duration                                 : 1 h 39 min
  56. Bit rate                                 : 34.8 kb/s
  57. Count of elements                        : 2212
  58. Stream size                              : 24.7 MiB (0%)
  59. Title                                    : English (SDH)
  60. Language                                 : English
  61. Default                                  : No
  62. Forced                                   : No

  63. Text #2
  64. ID                                       : 4
  65. Format                                   : UTF-8
  66. Codec ID                                 : S_TEXT/UTF8
  67. Codec ID/Info                            : UTF-8 Plain Text
  68. Duration                                 : 1 h 30 min
  69. Bit rate                                 : 46 b/s
  70. Count of elements                        : 986
  71. Stream size                              : 31.2 KiB (0%)
  72. Title                                    : English (SRT)
  73. Language                                 : English
  74. Default                                  : No
  75. Forced                                   : No

  76. Text #3
  77. ID                                       : 5
  78. Format                                   : UTF-8
  79. Codec ID                                 : S_TEXT/UTF8
  80. Codec ID/Info                            : UTF-8 Plain Text
  81. Duration                                 : 1 h 39 min
  82. Bit rate                                 : 53 b/s
  83. Count of elements                        : 1322
  84. Stream size                              : 38.6 KiB (0%)
  85. Title                                    : English (SDH SRT)
  86. Language                                 : English
  87. Default                                  : No
  88. Forced                                   : No

  89. Menu
  90. 00:00:00.000                             : en:Chapter 01
  91. 00:09:49.714                             : en:Chapter 02
  92. 00:17:50.278                             : en:Chapter 03
  93. 00:30:15.897                             : en:Chapter 04
  94. 00:40:31.721                             : en:Chapter 05
  95. 00:51:37.469                             : en:Chapter 06
  96. 01:00:25.163                             : en:Chapter 07
  97. 01:10:15.795                             : en:Chapter 08
  98. 01:15:11.340                             : en:Chapter 09
  99. 01:27:07.722                             : en:Chapter 10
  100. 01:37:18.166                             : en:Chapter 11
复制代码



                                       
                                       

                                       
                                       
                                       




回复

使用道具 举报

懒得打字嘛,点击右侧快捷回复 【右侧内容,后台自定义】
您需要登录后才可以回帖 登录 | 立即加入

本版积分规则

Archiver|小黑屋| 蓝光电影网 |网站地图

Copyright © 2021 Comsenz Inc. Powered by 蓝光电影网

蓝光电影网

本站内容由用户自主分享和转载自互联网,转载目的在于传递更多信息,并不代表本网赞同其观点和对其真实性负责。

如有侵权、违反国家法律政策行为,请联系我们,我们会第一时间及时清除和处理!

举报反馈邮箱:[email protected]

快速回复 返回顶部 返回列表