找回密码

蓝光电影网

查看: 7|回复: 0

[恐怖] 残忍的仪式 The.Legend.of.Blood.Castle.1973.SPANISH.1080p.BluRay.x264.FLAC.1.0-HANDJOB 7.94GB

[复制链接]
蓝光币
382
发表于 2021-2-16 08:56:08 | 显示全部楼层 |阅读模式


◎译  名 残暴的仪式/Bloody Ceremony/The Female Butcher
◎片  名 Ceremonia sangrienta
◎年  代 1973
◎产  地 西班牙,意大利
◎类  别 可骇
◎语  言 西班牙语,英语
◎上映日期 1973-09-10
◎IMDb评分  5.8/10 from 504 users
◎IMDb链接  https://www.imdb.com/title/tt0068352/
◎豆瓣评分 /10 from 0 users
◎豆瓣链接 https://movie.douban.com/subject/2239649/
◎片  长 102 分钟
◎导  演 豪尔赫·格劳 Jorge Grau
◎编  剧 Juan Tébar / 桑德罗·孔蒂嫩扎 Sandro Continenza / 豪尔赫·格劳 Jorge Grau
◎主  演 Loreta Tovar
       胡安·乔斯·奥特圭 Juan José Otegui
       Lola Gaos
       埃斯塔尼斯·冈萨雷斯 Estanis González
       Miguel Bu?uel
       埃斯帕塔科·圣托尼 Espartaco Santoni
       露西娅·波塞 Lucia Bosé
       伊娃·奥琳 Ewa Aulin
◎标  签 可骇 | W-Cult | 西班牙电影 | 西班牙 | 血腥 | giallo | 美国电影 | 正鄙人
◎简  介


  暂无相关剧情先容
  1. Video
  2. ID                                       : 1
  3. Format                                   : AVC
  4. Format/Info                              : Advanced Video Codec
  5. Format profile                           : [email protected]
  6. Format settings                          : CABAC / 4 Ref Frames
  7. Format settings, CABAC                   : Yes
  8. Format settings, Reference frames        : 4 frames
  9. Codec ID                                 : V_MPEG4/ISO/AVC
  10. Duration                                 : 1 h 30 min
  11. Bit rate                                 : 11.9 Mb/s
  12. Width                                    : 1 792 pixels
  13. Height                                   : 1 080 pixels
  14. Display aspect ratio                     : 5:3
  15. Frame rate mode                          : Constant
  16. Frame rate                               : 23.976 (24000/1001/189150) FPS
  17. Color space                              : YUV
  18. Chroma subsampling                       : 4:2:0
  19. Bit depth                                : 8 bits
  20. Scan type                                : Progressive
  21. Bits/(Pixel*Frame)                       : 0.256
  22. Stream size                              : 7.47 GiB (94%)
  23. Writing library                          : x264 core 157 r2935 545de2f
  24. Encoding settings                        : cabac=1 / ref=4 / deblock=1:-3:-3 / analyse=0x3:0x133 / me=umh / subme=10 / psy=1 / psy_rd=1.00:0.00 / mixed_ref=1 / me_range=32 / chroma_me=1 / trellis=2 / 8x8dct=1 / cqm=0 / deadzone=21,11 / fast_pskip=0 / chroma_qp_offset=-2 / threads=18 / lookahead_threads=4 / sliced_threads=0 / nr=0 / decimate=0 / interlaced=0 / bluray_compat=0 / constrained_intra=0 / bframes=16 / b_pyramid=2 / b_adapt=2 / b_bias=0 / direct=3 / weightb=1 / open_gop=0 / weightp=2 / keyint=240 / keyint_min=24 / scenecut=40 / intra_refresh=0 / rc_lookahead=60 / rc=crf / mbtree=0 / crf=21.0 / qcomp=0.60 / qpmin=0 / qpmax=69 / qpstep=4 / vbv_maxrate=62500 / vbv_bufsize=78125 / crf_max=0.0 / nal_hrd=none / filler=0 / ip_ratio=1.40 / pb_ratio=1.30 / aq=2:1.00
  25. Default                                  : Yes
  26. Forced                                   : No
  27. Color range                              : Limited
  28. Color primaries                          : BT.709
  29. Transfer characteristics                 : BT.709
  30. Matrix coefficients                      : BT.709
  31. Audio #1
  32. ID                                       : 2
  33. Format                                   : FLAC
  34. Format/Info                              : Free Lossless Audio Codec
  35. Codec ID                                 : A_FLAC
  36. Duration                                 : 1 h 30 min
  37. Bit rate mode                            : Variable
  38. Bit rate                                 : 263 kb/s
  39. Channel(s)                               : 1 channel
  40. Channel layout                           : C
  41. Sampling rate                            : 48.0 kHz
  42. Frame rate                               : 11.719 FPS (4096 SPF)
  43. Bit depth                                : 16 bits
  44. Compression mode                         : Lossless
  45. Stream size                              : 169 MiB (2%)
  46. Writing library                          : libFLAC 1.3.2 (UTC 2017-01-01)
  47. Language                                 : Spanish
  48. Default                                  : Yes
  49. Forced                                   : No
  50. Audio #2
  51. ID                                       : 3
  52. Format                                   : FLAC
  53. Format/Info                              : Free Lossless Audio Codec
  54. Codec ID                                 : A_FLAC
  55. Duration                                 : 1 h 30 min
  56. Bit rate mode                            : Variable
  57. Bit rate                                 : 279 kb/s
  58. Channel(s)                               : 1 channel
  59. Channel layout                           : C
  60. Sampling rate                            : 48.0 kHz
  61. Frame rate                               : 11.719 FPS (4096 SPF)
  62. Bit depth                                : 16 bits
  63. Compression mode                         : Lossless
  64. Stream size                              : 180 MiB (2%)
  65. Title                                    : English Dub
  66. Writing library                          : libFLAC 1.3.2 (UTC 2017-01-01)
  67. Language                                 : English
  68. Default                                  : No
  69. Forced                                   : No
  70. Audio #3
  71. ID                                       : 4
  72. Format                                   : AAC LC
  73. Format/Info                              : Advanced Audio Codec Low Complexity
  74. Codec ID                                 : A_AAC-2
  75. Duration                                 : 1 h 30 min
  76. Bit rate                                 : 96.0 kb/s
  77. Channel(s)                               : 2 channels
  78. Channel layout                           : L R
  79. Sampling rate                            : 48.0 kHz
  80. Frame rate                               : 46.875 FPS (1024 SPF)
  81. Compression mode                         : Lossy
  82. Delay relative to video                  : 9 ms
  83. Stream size                              : 61.9 MiB (1%)
  84. Title                                    : Commentary with Troy Howarth and Nathaniel Thompson
  85. Language                                 : English
  86. Default                                  : No
  87. Forced                                   : No
  88. Audio #4
  89. ID                                       : 5
  90. Format                                   : AAC LC
  91. Format/Info                              : Advanced Audio Codec Low Complexity
  92. Codec ID                                 : A_AAC-2
  93. Duration                                 : 1 h 30 min
  94. Bit rate                                 : 96.0 kb/s
  95. Channel(s)                               : 2 channels
  96. Channel layout                           : L R
  97. Sampling rate                            : 48.0 kHz
  98. Frame rate                               : 46.875 FPS (1024 SPF)
  99. Compression mode                         : Lossy
  100. Delay relative to video                  : 9 ms
  101. Stream size                              : 61.9 MiB (1%)
  102. Title                                    : Commentary with Robert Monell and Rod Barnett
  103. Language                                 : English
  104. Default                                  : No
  105. Forced                                   : No
  106. Text
  107. ID                                       : 6
  108. Format                                   : UTF-8
  109. Codec ID                                 : S_TEXT/UTF8
  110. Codec ID/Info                            : UTF-8 Plain Text
  111. Duration                                 : 1 h 26 min
  112. Bit rate                                 : 35 b/s
  113. Count of elements                        : 692
  114. Stream size                              : 22.6 KiB (0%)
  115. Language                                 : English
  116. Default                                  : Yes
  117. Forced                                   : No
  118. Menu
  119. 00:00:00.000                             : en:Chapter 1
  120. 00:08:22.335                             : en:Chapter 2
  121. 00:14:58.272                             : en:Chapter 3
  122. 00:21:41.008                             : en:Chapter 4
  123. 00:28:19.489                             : en:Chapter 5
  124. 00:39:51.848                             : en:Chapter 6
  125. 00:48:22.775                             : en:Chapter 7
  126. 01:01:09.624                             : en:Chapter 8
  127. 01:12:04.487                             : en:Chapter 9
  128. 01:19:37.481                             : en:Chapter 10
复制代码






                                       
                                       

                                       
                                       
                                       




回复

使用道具 举报

懒得打字嘛,点击右侧快捷回复 【右侧内容,后台自定义】
您需要登录后才可以回帖 登录 | 立即加入

本版积分规则

Archiver|小黑屋| 蓝光电影网 |网站地图

Copyright © 2021 Comsenz Inc. Powered by 蓝光电影网

蓝光电影网

本站内容由用户自主分享和转载自互联网,转载目的在于传递更多信息,并不代表本网赞同其观点和对其真实性负责。

如有侵权、违反国家法律政策行为,请联系我们,我们会第一时间及时清除和处理!

举报反馈邮箱:[email protected]

快速回复 返回顶部 返回列表