找回密码

蓝光电影网

查看: 10|回复: 0

[喜剧] 无上婚宴 Top.End.Wedding.2019.720p.BluRay.x264.DTS-FGT 4.99GB

[复制链接]
蓝光币
386
发表于 2019-8-14 14:25:46 | 显示全部楼层 |阅读模式


◎译  名 无尚婚宴 / Top-End Wedding
◎片  名 Top End Wedding
◎年  代 2019
◎产  地 澳大利亚
◎类  别 笑剧
◎语  言 英语
◎上映日期 2019-01-30(圣丹斯电影节)
◎IMDb评分  7.1/10 from 385 users
◎IMDb链接  http://www.imdb.com/title/tt7555072
◎豆瓣评分 0/10 from 0 users
◎豆瓣链接 https://movie.douban.com/subject/30390696/
◎导  演 韦恩·布莱尔 Wayne Blair
◎编  剧 Miranda Tapsell / Joshua Tyler
◎主  演 格威利姆·李 Gwilym Lee
       凯瑞·福克斯 Kerry Fox
       Miranda Tapsell
       Huw Higginson
       Travis Jeffery
       Shari Sebbens
       Ursula Yovich
       Elaine Crombie
       Matt Crook
       Atmiya Patel

◎标  签 澳洲 | 笑剧 | cinema | Cinema_2019 | 2019Sundance | 2019
◎简  介  
  暂无相关剧情先容
  1. Video
  2. ID                                       : 1
  3. Format                                   : AVC
  4. Format/Info                              : Advanced Video Codec
  5. Format profile                           : [email protected]
  6. Format settings                          : CABAC / 4 Ref Frames
  7. Format settings, CABAC                   : Yes
  8. Format settings, Reference frames        : 4 frames
  9. Codec ID                                 : V_MPEG4/ISO/AVC
  10. Duration                                 : 1 h 41 min
  11. Bit rate                                 : 5 500 kb/s
  12. Width                                    : 1 280 pixels
  13. Height                                   : 534 pixels
  14. Display aspect ratio                     : 2.40:1
  15. Original display aspect ratio            : 2.40:1
  16. Frame rate mode                          : Constant
  17. Frame rate                               : 24.000 FPS
  18. Color space                              : YUV
  19. Chroma subsampling                       : 4:2:0
  20. Bit depth                                : 8 bits
  21. Scan type                                : Progressive
  22. Bits/(Pixel*Frame)                       : 0.335
  23. Stream size                              : 3.91 GiB (78%)
  24. Title                                    : Top.End.Wedding.2019.720p.BluRay.x264.DTS-FGT
  25. Writing library                          : x264 core 148 r2795M aaa9aa8
  26. Encoding settings                        : cabac=1 / ref=4 / deblock=1:-2:-2 / analyse=0x3:0x113 / me=umh / subme=9 / psy=1 / psy_rd=1.00:0.15 / mixed_ref=1 / me_range=16 / chroma_me=1 / trellis=2 / 8x8dct=1 / cqm=0 / deadzone=21,11 / fast_pskip=1 / chroma_qp_offset=-3 / threads=24 / lookahead_threads=3 / sliced_threads=0 / nr=0 / decimate=1 / interlaced=0 / bluray_compat=0 / constrained_intra=0 / bframes=3 / b_pyramid=2 / b_adapt=1 / b_bias=0 / direct=3 / weightb=1 / open_gop=0 / weightp=2 / keyint=250 / keyint_min=25 / scenecut=40 / intra_refresh=0 / rc_lookahead=50 / rc=2pass / mbtree=1 / bitrate=5500 / ratetol=1.0 / qcomp=0.60 / qpmin=0 / qpmax=69 / qpstep=4 / cplxblur=20.0 / qblur=0.5 / vbv_maxrate=31250 / vbv_bufsize=31250 / nal_hrd=none / filler=0 / ip_ratio=1.40 / aq=1:1.00
  27. Language                                 : English
  28. Default                                  : Yes
  29. Forced                                   : No
  30. Audio
  31. ID                                       : 2
  32. Format                                   : DTS
  33. Format/Info                              : Digital Theater Systems
  34. Codec ID                                 : A_DTS
  35. Duration                                 : 1 h 41 min
  36. Bit rate mode                            : Constant
  37. Bit rate                                 : 1 509 kb/s
  38. Channel(s)                               : 6 channels
  39. Channel layout                           : C L R Ls Rs LFE
  40. Sampling rate                            : 48.0 kHz
  41. Frame rate                               : 93.750 FPS (512 SPF)
  42. Bit depth                                : 16 bits
  43. Compression mode                         : Lossy
  44. Stream size                              : 1.07 GiB (22%)
  45. Title                                    : Top.End.Wedding.2019.720p.BluRay.x264.DTS-FGT
  46. Language                                 : English
  47. Default                                  : Yes
  48. Forced                                   : No
  49. Text
  50. ID                                       : 3
  51. Format                                   : UTF-8
  52. Codec ID                                 : S_TEXT/UTF8
  53. Codec ID/Info                            : UTF-8 Plain Text
  54. Duration                                 : 1 h 38 min
  55. Bit rate                                 : 60 b/s
  56. Count of elements                        : 1497
  57. Stream size                              : 43.7 KiB (0%)
  58. Language                                 : English
  59. Default                                  : Yes
  60. Forced                                   : No
  61. Menu
  62. 00:00:00.000                             : en:Chapter 1
  63. 00:05:50.208                             : en:Chapter 2
  64. 00:13:15.958                             : en:Chapter 3
  65. 00:19:35.041                             : en:Chapter 4
  66. 00:27:10.666                             : en:Chapter 5
  67. 00:33:18.041                             : en:Chapter 6
  68. 00:39:59.750                             : en:Chapter 7
  69. 00:45:17.500                             : en:Chapter 8
  70. 00:50:07.791                             : en:Chapter 9
  71. 00:56:39.125                             : en:Chapter 10
  72. 01:03:19.416                             : en:Chapter 11
  73. 01:07:54.791                             : en:Chapter 12
  74. 01:14:48.791                             : en:Chapter 13
  75. 01:21:05.166                             : en:Chapter 14
  76. 01:25:57.083                             : en:Chapter 15
  77. 01:35:50.708                             : en:Chapter 16
复制代码






                                       
                                       

                                       
                                       
                                       




回复

使用道具 举报

懒得打字嘛,点击右侧快捷回复 【右侧内容,后台自定义】
您需要登录后才可以回帖 登录 | 立即加入

本版积分规则

Archiver|小黑屋| 蓝光电影网 |网站地图

Copyright © 2021 Comsenz Inc. Powered by 蓝光电影网

蓝光电影网

本站内容由用户自主分享和转载自互联网,转载目的在于传递更多信息,并不代表本网赞同其观点和对其真实性负责。

如有侵权、违反国家法律政策行为,请联系我们,我们会第一时间及时清除和处理!

举报反馈邮箱:[email protected]

快速回复 返回顶部 返回列表