找回密码

蓝光电影网

查看: 43|回复: 0

[动作] 重返中世纪/决战时空线 Timeline.2003.1080p.BluRay.x264.DTS-FGT 10.49GB

[复制链接]
蓝光币
515
发表于 2021-6-8 20:33:41 | 显示全部楼层 |阅读模式


◎译  名 重返中世纪/决战时空线(台)/时候线/丢失凶间(港)
◎片  名 Timeline
◎年  代 2003
◎产  地 美国
◎类  别 行动 / 科幻 / 冒险
◎语  言 英语,法语
◎上映日期 2003-11-19
◎豆瓣评分 6.4/10 from 5855 users
◎豆瓣链接 https://movie.douban.com/subject/1306004/
◎片  长 116 分钟
◎导  演 理查德·唐纳 Richard Donner
◎编  剧 乔治·诺非 George Nolfi / 杰夫·马圭尔 Jeff Maguire / 迈克尔·克莱顿 Michael Crichton
◎主  演 保罗·沃克 Paul Walker
       弗兰西丝·奥康纳 Frances O'Connor
       杰拉德·巴特勒 Gerard Butler
       比利·康诺利 Billy Connolly
       大卫·休里斯 David Thewlis
       安娜·弗莱尔 Anna Friel
       尼尔·麦克唐纳 Neal McDonough
       马特·克拉文 Matt Craven
       伊桑·恩布里 Ethan Embry
       麦克·辛 Michael Sheen
       朗贝尔·维尔森 Lambert Wilson
       马尔顿·索克斯 Marton Csokas
       罗西弗·萨瑟兰 Rossif Sutherland
       大卫·拉艾 David La Haye
       瓦拉斯塔·瓦拉纳 Vlasta Vrana
       吕克·莱图尔诺 Luke Letourneau
       克里斯蒂安·保罗 Christian Paul
       帕特里克·萨邦圭 Patrick Sabongui
       Stéphanie Montreux
       西尔维亚·斯图尔特 Sylvia Stewart
       克里斯·苏利文 Chris Sullivan
       布鲁斯·拉姆塞 Bruce Ramsay
       Stephanie Biddle
       艾米·斯洛安 Amy Sloan
       理查德·唐纳 Richard Donner
◎标  签 科幻 | 美国 | 穿越时空 | 时候观光 | 战争 | 美国电影 | 2003 | 英法战争
◎简  介


  老教授爱德华·乔斯顿(比利·康诺利 Billy Connolly 饰)是一位努力于中世纪考古的历史学家,而挖掘14世纪遗留下的拉洛克城堡一向是他的终生心愿,但是直到明天,一家国际科技公司的总裁罗伯特(大卫?休里斯 David Thewlis 饰)愿意投资该项目,乔斯特的愿望才终究得以实现,他便马不停蹄地与儿子克里斯(保罗·沃克 Paul Walker 饰)一路组建了考古小组预备前往法国,探访昔时的古疆场。但是考古小组成员在一次很平常的挖掘中,发现了一张1357年的求救纸条,签名居然是乔斯顿教授,四周还发现了教授的眼镜,但距今已600多年。百思不得其解的组员们找到投资人罗伯特,方知野心勃勃的罗伯特竟奥秘发现了一架时光机械,能穿越虫洞将人送回到1357年。面临着这个可怕而奇异的工具,克里斯决议率领成员一同重返中世纪,拯救父亲。但是他们谁也无从猜测,在虫洞的另一头期待着他们的会是什么……
  
  本片改编自美国作家迈克尔·克莱顿(Michael Crichton)的同名小说。
  1. Video
  2. ID                                       : 1
  3. Format                                   : AVC
  4. Format/Info                              : Advanced Video Codec
  5. Format profile                           : [email protected]
  6. Format settings                          : CABAC / 4 Ref Frames
  7. Format settings, CABAC                   : Yes
  8. Format settings, Reference frames        : 4 frames
  9. Codec ID                                 : V_MPEG4/ISO/AVC
  10. Duration                                 : 1 h 55 min
  11. Bit rate                                 : 11.5 Mb/s
  12. Width                                    : 1 920 pixels
  13. Height                                   : 1 080 pixels
  14. Display aspect ratio                     : 16:9
  15. Frame rate mode                          : Constant
  16. Frame rate                               : 23.976 (24000/1001/189150) FPS
  17. Color space                              : YUV
  18. Chroma subsampling                       : 4:2:0
  19. Bit depth                                : 8 bits
  20. Scan type                                : Progressive
  21. Bits/(Pixel*Frame)                       : 0.231
  22. Stream size                              : 9.27 GiB (88%)
  23. Writing library                          : x264 core 148 r2795M aaa9aa8
  24. Encoding settings                        : cabac=1 / ref=4 / deblock=1:-2:-2 / analyse=0x3:0x113 / me=umh / subme=9 / psy=1 / psy_rd=1.00:0.15 / mixed_ref=1 / me_range=16 / chroma_me=1 / trellis=2 / 8x8dct=1 / cqm=0 / deadzone=21,11 / fast_pskip=1 / chroma_qp_offset=-3 / threads=24 / lookahead_threads=3 / sliced_threads=0 / nr=0 / decimate=1 / interlaced=0 / bluray_compat=0 / constrained_intra=0 / bframes=3 / b_pyramid=2 / b_adapt=1 / b_bias=0 / direct=3 / weightb=1 / open_gop=0 / weightp=2 / keyint=250 / keyint_min=25 / scenecut=40 / intra_refresh=0 / rc_lookahead=50 / rc=2pass / mbtree=1 / bitrate=11500 / ratetol=1.0 / qcomp=0.60 / qpmin=0 / qpmax=69 / qpstep=4 / cplxblur=20.0 / qblur=0.5 / vbv_maxrate=31250 / vbv_bufsize=31250 / nal_hrd=none / filler=0 / ip_ratio=1.40 / aq=1:1.00
  25. Language                                 : English
  26. Default                                  : Yes
  27. Forced                                   : No
  28. Audio
  29. ID                                       : 2
  30. Format                                   : DTS
  31. Format/Info                              : Digital Theater Systems
  32. Codec ID                                 : A_DTS
  33. Duration                                 : 1 h 55 min
  34. Bit rate mode                            : Constant
  35. Bit rate                                 : 1 509 kb/s
  36. Channel(s)                               : 6 channels
  37. Channel layout                           : C L R Ls Rs LFE
  38. Sampling rate                            : 48.0 kHz
  39. Frame rate                               : 93.750 FPS (512 SPF)
  40. Bit depth                                : 24 bits
  41. Compression mode                         : Lossy
  42. Stream size                              : 1.22 GiB (12%)
  43. Language                                 : English
  44. Default                                  : Yes
  45. Forced                                   : No
  46. Text
  47. ID                                       : 3
  48. Format                                   : UTF-8
  49. Codec ID                                 : S_TEXT/UTF8
  50. Codec ID/Info                            : UTF-8 Plain Text
  51. Duration                                 : 1 h 45 min
  52. Bit rate                                 : 66 b/s
  53. Count of elements                        : 1498
  54. Stream size                              : 51.4 KiB (0%)
  55. Language                                 : English
  56. Default                                  : Yes
  57. Forced                                   : No
  58. Menu
  59. 00:00:00.000                             : Chapter 01
  60. 00:03:52.982                             : Chapter 02
  61. 00:12:12.273                             : Chapter 03
  62. 00:17:36.722                             : Chapter 04
  63. 00:25:15.055                             : Chapter 05
  64. 00:39:32.870                             : Chapter 06
  65. 00:49:49.820                             : Chapter 07
  66. 00:57:53.344                             : Chapter 08
  67. 01:08:40.407                             : Chapter 09
  68. 01:24:32.650                             : Chapter 10
  69. 01:35:52.997                             : Chapter 11
  70. 01:47:51.798                             : Chapter 12
复制代码






                                       
                                       

                                       
                                       
                                       




回复

使用道具 举报

懒得打字嘛,点击右侧快捷回复 【右侧内容,后台自定义】
您需要登录后才可以回帖 登录 | 立即加入

本版积分规则

Archiver|小黑屋| 蓝光电影网 |网站地图

Copyright © 2021 Comsenz Inc. Powered by 蓝光电影网

蓝光电影网

本站内容由用户自主分享和转载自互联网,转载目的在于传递更多信息,并不代表本网赞同其观点和对其真实性负责。

如有侵权、违反国家法律政策行为,请联系我们,我们会第一时间及时清除和处理!

举报反馈邮箱:[email protected]

快速回复 返回顶部 返回列表