找回密码

蓝光电影网

查看: 4|回复: 0

[喜剧] 鬼头大兵/发财妙计 Sgt.Bilko.1996.1080p.BluRay.x264-PSYCHD 9.83GB

[复制链接]
蓝光币
426
发表于 2020-8-17 13:42:00 | 显示全部楼层 |阅读模式


◎译  名 鬼头大兵 / 发家奇策 / 妙趣沙展
◎片  名 Sgt. Bilko
◎年  代 1996
◎产  地 美国
◎类  别 笑剧
◎语  言 英语
◎上映日期 1996-03-29
◎IMDb评分  5.9/10 from 21018 users
◎IMDb链接  https://www.imdb.com/title/tt0117608
◎豆瓣评分 7.5/10 from 622 users
◎豆瓣链接 https://movie.douban.com/subject/1293183/
◎片  长 93 分钟
◎导  演 乔纳森·林恩 Jonathan Lynn
◎编  剧 Nat Hiken / 安迪·布莱克曼 Andy Breckman
◎主  演 史蒂夫·马丁 Steve Martin
       丹·艾克罗伊德 Dan Aykroyd
       菲尔·哈特曼 Phil Hartman
       格伦妮·海德利 Glenne Headly
       Daryl Mitchell
       马克斯·凯塞拉 Max Casella
       Eric Edwards
       Dan Ferro
       John Marshall Jones
       布莱恩·雷科内尔 Brian Leckner
       约翰·奥提兹 John Ortiz
       帕梅拉·阿德龙 Pamela Adlon
       米歇尔·维特菲尔德 Mitchell Whitfield
       奥斯汀·潘德尔顿 Austin Pendleton
       克里斯·洛克 Chris Rock

◎标  签 笑剧 | 美国 | 无厘头 | 恶搞 | 搞笑 | 美国电影 | 1996 | 电影
◎简  介

  
  This movie is a remake of the hit series which starred, Phil Silvers as Sgt. Bilko. In this movie, Bilko tuns the motor pool and has all sorts of scams going on like gambling, renting out military vehicles, and so on, which are all violations. However, his commanding officer, Colonel Hall overlooks them, cause he is more concerned about his future, cause a lot of bases are being closed, and the inspector, Major Thorn was on the verge of doing that. But when he heard that Bilko was on the base, he turned into a mad dog. It seems that Thorn was a "thorn" in Bilko's side many years ago but through a series of misunderstandings, Thorn was accused of carrying out or being the brains behind one of Bilko's schemes, he would be sent to Greenland and his career has not gone as he hoped it would and now wants revenge on Bilko.  Written by {[email protected]}
  1. Video
  2. ID                                       : 1
  3. Format                                   : AVC
  4. Format/Info                              : Advanced Video Codec
  5. Format profile                           : [email protected]
  6. Format settings                          : CABAC / 5 Ref Frames
  7. Format settings, CABAC                   : Yes
  8. Format settings, Reference frames        : 5 frames
  9. Codec ID                                 : V_MPEG4/ISO/AVC
  10. Duration                                 : 1 h 34 min
  11. Bit rate                                 : 13.4 Mb/s
  12. Width                                    : 1 920 pixels
  13. Height                                   : 824 pixels
  14. Display aspect ratio                     : 2.35:1
  15. Frame rate mode                          : Constant
  16. Frame rate                               : 23.976 (24000/1001/189150) FPS
  17. Color space                              : YUV
  18. Chroma subsampling                       : 4:2:0
  19. Bit depth                                : 8 bits
  20. Scan type                                : Progressive
  21. Bits/(Pixel*Frame)                       : 0.355
  22. Stream size                              : 8.65 GiB (88%)
  23. Writing library                          : x264 core 150 r2833 df79067
  24. Encoding settings                        : cabac=1 / ref=5 / deblock=1:-3:-3 / analyse=0x3:0x113 / me=hex / subme=8 / psy=1 / psy_rd=1.12:0.00 / mixed_ref=1 / me_range=16 / chroma_me=1 / trellis=2 / 8x8dct=1 / cqm=0 / deadzone=21,11 / fast_pskip=1 / chroma_qp_offset=-2 / threads=6 / lookahead_threads=1 / sliced_threads=0 / nr=0 / decimate=1 / interlaced=0 / bluray_compat=0 / constrained_intra=0 / bframes=3 / b_pyramid=2 / b_adapt=2 / b_bias=0 / direct=3 / weightb=1 / open_gop=0 / weightp=2 / keyint=240 / keyint_min=24 / scenecut=40 / intra_refresh=0 / rc_lookahead=50 / rc=2pass / mbtree=1 / bitrate=13450 / ratetol=1.0 / qcomp=0.60 / qpmin=0 / qpmax=69 / qpstep=4 / cplxblur=20.0 / qblur=0.5 / ip_ratio=1.40 / aq=3:0.75
  25. Default                                  : Yes
  26. Forced                                   : No
  27. Statistics Tags Issue                    : no_variable_data 1970-01-01 00:00:00 / no_variable_data 2010-02-22 21:41:29
  28. FromStats_BitRate                        : 13444135
  29. FromStats_Duration                       : 01:34:07.642000000
  30. FromStats_FrameCount                     : 135408
  31. FromStats_StreamSize                     : 9490958186

  32. Audio
  33. ID                                       : 2
  34. Format                                   : DTS
  35. Format/Info                              : Digital Theater Systems
  36. Codec ID                                 : A_DTS
  37. Duration                                 : 1 h 34 min
  38. Bit rate mode                            : Constant
  39. Bit rate                                 : 1 509 kb/s
  40. Channel(s)                               : 5 channels
  41. Channel layout                           : C L R Ls Rs
  42. Sampling rate                            : 48.0 kHz
  43. Frame rate                               : 93.750 FPS (512 SPF)
  44. Bit depth                                : 24 bits
  45. Compression mode                         : Lossy
  46. Stream size                              : 1 016 MiB (10%)
  47. Language                                 : English
  48. Default                                  : Yes
  49. Forced                                   : No
  50. Statistics Tags Issue                    : no_variable_data 1970-01-01 00:00:00 / no_variable_data 2010-02-22 21:41:29
  51. FromStats_BitRate                        : 1509000
  52. FromStats_Duration                       : 01:34:07.648000000
  53. FromStats_FrameCount                     : 529467
  54. FromStats_StreamSize                     : 1065287604

  55. Menu
  56. 00:00:00.000                             : en:00:00:00.000
  57. 00:08:14.119                             : en:00:08:14.119
  58. 00:15:09.992                             : en:00:15:09.992
  59. 00:23:24.028                             : en:00:23:24.028
  60. 00:30:34.041                             : en:00:30:34.041
  61. 00:36:35.026                             : en:00:36:35.026
  62. 00:44:46.058                             : en:00:44:46.058
  63. 00:53:13.273                             : en:00:53:13.273
  64. 00:59:43.163                             : en:00:59:43.163
  65. 01:11:10.224                             : en:01:11:10.224
  66. 01:19:25.219                             : en:01:19:25.219
  67. 01:29:50.594                             : en:01:29:50.594
复制代码




                                       
                                       

                                       
                                       
                                       




回复

使用道具 举报

懒得打字嘛,点击右侧快捷回复 【右侧内容,后台自定义】
您需要登录后才可以回帖 登录 | 立即加入

本版积分规则

Archiver|小黑屋| 蓝光电影网 |网站地图

Copyright © 2021 Comsenz Inc. Powered by 蓝光电影网

蓝光电影网

本站内容由用户自主分享和转载自互联网,转载目的在于传递更多信息,并不代表本网赞同其观点和对其真实性负责。

如有侵权、违反国家法律政策行为,请联系我们,我们会第一时间及时清除和处理!

举报反馈邮箱:[email protected]

快速回复 返回顶部 返回列表