找回密码

蓝光电影网

查看: 9|回复: 0

[惊悚] 极限网红 Follow.Me.2020.720p.BluRay.x264-PFa 1.67GB

[复制链接]
蓝光币
386
发表于 2020-10-29 09:13:03 | 显示全部楼层 |阅读模式


◎译  名 极限网红/No Escape/密弒直播(台)/无处可逃/玩命直播(港)/跟我来/随着我
◎片  名 Follow Me
◎年  代 2020
◎产  地 美国
◎类  别 惊悚 / 可骇
◎语  言 英语,俄语 Russian
◎上映日期 2020-07-11(德国空想电影节) / 2020-09-18(美国)
◎IMDb评分  5.4/10 from 3142 users
◎IMDb链接  https://www.imdb.com/title/tt8160834/
◎豆瓣评分 5.6/10 from 90 users
◎豆瓣链接 https://movie.douban.com/subject/34889715/
◎片  长 88分钟
◎主  演 罗南·鲁宾斯坦 Ronen Rubinstein
       霍兰·罗登 Holland Roden
       丹泽尔·惠特克 Denzel Whitaker
       金贝利·奎恩 Kimberly Quinn
       凯加·艾伦 Keegan Allen
◎标  签 惊悚 | 可骇 | 美国 | 2020 | 美国电影 | 犯罪 | 逃杀 | 线上
◎简  介


  一个交际媒体人物与他的朋友一路前往莫斯科,以获得他成功的VLOG的新内容。他们总是不竭应战极限,逢迎不竭增加的受众,他们进入了一个布满奥秘,过度和危险的严寒天下。当现实生活与交际媒体之间的界限变得模糊时,该构造必须为回避和保存而战。
  1. Video
  2. ID                                       : 1
  3. Format                                   : AVC
  4. Format/Info                              : Advanced Video Codec
  5. Format profile                           : [email protected]
  6. Format settings                          : CABAC / 8 Ref Frames
  7. Format settings, CABAC                   : Yes
  8. Format settings, Reference frames        : 8 frames
  9. Codec ID                                 : V_MPEG4/ISO/AVC
  10. Duration                                 : 1 h 32 min
  11. Bit rate                                 : 1 963 kb/s
  12. Width                                    : 1 280 pixels
  13. Height                                   : 536 pixels
  14. Display aspect ratio                     : 2.40:1
  15. Frame rate mode                          : Constant
  16. Frame rate                               : 23.976 (24000/1001/189150) FPS
  17. Color space                              : YUV
  18. Chroma subsampling                       : 4:2:0
  19. Bit depth                                : 8 bits
  20. Scan type                                : Progressive
  21. Bits/(Pixel*Frame)                       : 0.119
  22. Stream size                              : 1.26 GiB (75%)
  23. Writing library                          : x264 core 157 r2969 d4099dd
  24. Encoding settings                        : cabac=1 / ref=8 / deblock=1:-3:-3 / analyse=0x3:0x133 / me=umh / subme=9 / psy=1 / psy_rd=1.00:0.00 / mixed_ref=1 / me_range=16 / chroma_me=1 / trellis=2 / 8x8dct=1 / cqm=0 / deadzone=21,11 / fast_pskip=1 / chroma_qp_offset=-2 / threads=12 / lookahead_threads=1 / sliced_threads=0 / nr=0 / decimate=1 / interlaced=0 / bluray_compat=0 / constrained_intra=0 / bframes=3 / b_pyramid=2 / b_adapt=2 / b_bias=0 / direct=3 / weightb=1 / open_gop=0 / weightp=2 / keyint=250 / keyint_min=23 / scenecut=40 / intra_refresh=0 / rc_lookahead=60 / rc=crf / mbtree=1 / crf=17.0 / qcomp=0.60 / qpmin=0 / qpmax=69 / qpstep=4 / ip_ratio=1.40 / aq=3:0.70
  25. Language                                 : English
  26. Default                                  : Yes
  27. Forced                                   : No

  28. Audio
  29. ID                                       : 2
  30. Format                                   : AC-3
  31. Format/Info                              : Audio Coding 3
  32. Commercial name                          : Dolby Digital
  33. Codec ID                                 : A_AC3
  34. Duration                                 : 1 h 32 min
  35. Bit rate mode                            : Constant
  36. Bit rate                                 : 640 kb/s
  37. Channel(s)                               : 6 channels
  38. Channel layout                           : L R C LFE Ls Rs
  39. Sampling rate                            : 48.0 kHz
  40. Frame rate                               : 31.250 FPS (1536 SPF)
  41. Compression mode                         : Lossy
  42. Stream size                              : 421 MiB (25%)
  43. Service kind                             : Complete Main
  44. Default                                  : Yes
  45. Forced                                   : No
复制代码




                                       
                                       

                                       
                                       
                                       




回复

使用道具 举报

懒得打字嘛,点击右侧快捷回复 【右侧内容,后台自定义】
您需要登录后才可以回帖 登录 | 立即加入

本版积分规则

Archiver|小黑屋| 蓝光电影网 |网站地图

Copyright © 2021 Comsenz Inc. Powered by 蓝光电影网

蓝光电影网

本站内容由用户自主分享和转载自互联网,转载目的在于传递更多信息,并不代表本网赞同其观点和对其真实性负责。

如有侵权、违反国家法律政策行为,请联系我们,我们会第一时间及时清除和处理!

举报反馈邮箱:[email protected]

快速回复 返回顶部 返回列表