找回密码

蓝光电影网

查看: 13|回复: 0

[喜剧] 偷心女盗 The.Hustle.2019.720p.BluRay.x264-DRONES 4.39GB

[复制链接]
蓝光币
382
发表于 2019-8-13 03:24:56 | 显示全部楼层 |阅读模式
[img]https://img1.doubanio.com/view/photo/l_ratio_poster/public/p2546207183.jpg[img]
◎译  名 偷心女盗 / Dirty Rotten Scoundrels / Nasty Women / 圆美大盗(港) / 坏坏女郎 / 欺骗女神(台)
◎片  名 The Hustle
◎年  代 2019
◎产  地 美国
◎类  别 笑剧
◎语  言 英语
◎上映日期 2019-05-10(美国)
◎IMDb评分  5.4/10 from 9025 users
◎IMDb链接  http://www.imdb.com/title/tt1298644
◎豆瓣评分 6.0/10 from 1006 users
◎豆瓣链接 https://movie.douban.com/subject/3230155/
◎片  长 93分钟
◎导  演 克里斯·艾迪生 Chris Addison
◎编  剧 斯坦利·沙皮罗 Stanley Shapiro / 保罗·海宁 Paul Henning / 戴尔·劳纳尔 Dale Launer / 雅克·舍费尔 Jac Schaeffer
◎主  演 安妮·海瑟薇 Anne Hathaway
       蕾蓓尔·威尔森 Rebel Wilson
       蒂姆·布雷克·尼尔森 Tim Blake Nelson
       艾利克斯·夏普 Alex Sharp
       罗非洛·迪格托勒 Raffaello Degruttola
       迪诺·布加迪 Deano Bugatti
       布鲁诺·塞维利亚 Bruno Sevilla
       克里斯多夫·德·舒瓦西 Christophe de Choisy
       菲利普·德斯穆尔斯 Philip Desmeules
       库姆德·潘特 Kumud Pant
       塞缪尔·加斯帕德 Samuel Gaspard

◎标  签 笑剧 | 美国 | 2019 | 犯罪 | 搞笑 | 女性 | 翻拍 | 把妹
◎简  介  
  安妮·海瑟薇将加盟蕾蓓尔·威尔森新片《坏坏女郎》(Nasty Women,暂译)。影片翻拍自1988年弗兰克·奥兹执导,史蒂夫·马丁、迈克尔·凯恩主演的《骗徒臭事多》。片中安妮·海瑟薇、蕾蓓尔·威尔森化身女版骗徒,固然此次她们的方针将是鲜嫩多汁的“单身男人”。
  1. Video
  2. ID                                       : 1
  3. Format                                   : AVC
  4. Format/Info                              : Advanced Video Codec
  5. Format profile                           : [email protected]
  6. Format settings                          : CABAC / 5 Ref Frames
  7. Format settings, CABAC                   : Yes
  8. Format settings, Reference frames        : 5 frames
  9. Codec ID                                 : V_MPEG4/ISO/AVC
  10. Duration                                 : 1 h 33 min
  11. Bit rate                                 : 5 149 kb/s
  12. Width                                    : 1 280 pixels
  13. Height                                   : 536 pixels
  14. Display aspect ratio                     : 2.40:1
  15. Frame rate mode                          : Constant
  16. Frame rate                               : 23.976 (24000/1001) FPS
  17. Color space                              : YUV
  18. Chroma subsampling                       : 4:2:0
  19. Bit depth                                : 8 bits
  20. Scan type                                : Progressive
  21. Bits/(Pixel*Frame)                       : 0.313
  22. Stream size                              : 3.38 GiB (77%)
  23. Writing library                          : x264 core 158 r2984 3759fcb
  24. Encoding settings                        : cabac=1 / ref=5 / deblock=1:-3:-3 / analyse=0x3:0x133 / me=umh / subme=8 / psy=1 / psy_rd=1.00:0.00 / mixed_ref=1 / me_range=16 / chroma_me=1 / trellis=1 / 8x8dct=1 / cqm=0 / deadzone=21,11 / fast_pskip=0 / chroma_qp_offset=-2 / threads=17 / lookahead_threads=2 / sliced_threads=0 / nr=0 / decimate=1 / interlaced=0 / bluray_compat=0 / constrained_intra=0 / bframes=3 / b_pyramid=2 / b_adapt=1 / b_bias=0 / direct=3 / weightb=1 / open_gop=0 / weightp=2 / keyint=250 / keyint_min=23 / scenecut=40 / intra_refresh=0 / rc_lookahead=50 / rc=2pass / mbtree=1 / bitrate=5149 / ratetol=1.0 / qcomp=0.60 / qpmin=0 / qpmax=69 / qpstep=4 / cplxblur=20.0 / qblur=0.5 / vbv_maxrate=62500 / vbv_bufsize=78125 / nal_hrd=none / filler=0 / ip_ratio=1.40 / aq=1:1.00
  25. Default                                  : Yes
  26. Forced                                   : No

  27. Audio
  28. ID                                       : 2
  29. Format                                   : DTS
  30. Format/Info                              : Digital Theater Systems
  31. Codec ID                                 : A_DTS
  32. Duration                                 : 1 h 33 min
  33. Bit rate mode                            : Constant
  34. Bit rate                                 : 1 509 kb/s
  35. Channel(s)                               : 6 channels
  36. Channel layout                           : C L R Ls Rs LFE
  37. Sampling rate                            : 48.0 kHz
  38. Frame rate                               : 93.750 FPS (512 SPF)
  39. Bit depth                                : 24 bits
  40. Compression mode                         : Lossy
  41. Stream size                              : 1 014 MiB (23%)
  42. Language                                 : English
  43. Default                                  : Yes
  44. Forced                                   : No

  45. Menu
  46. 00:00:00.000                             : en:00:00:00.000
  47. 00:05:58.858                             : en:00:05:58.858
  48. 00:09:56.137                             : en:00:09:56.137
  49. 00:15:29.554                             : en:00:15:29.554
  50. 00:21:12.646                             : en:00:21:12.646
  51. 00:25:19.852                             : en:00:25:19.852
  52. 00:32:26.903                             : en:00:32:26.903
  53. 00:37:56.608                             : en:00:37:56.608
  54. 00:41:51.300                             : en:00:41:51.300
  55. 00:44:55.818                             : en:00:44:55.818
  56. 00:49:56.327                             : en:00:49:56.327
  57. 00:54:34.897                             : en:00:54:34.897
  58. 00:59:16.261                             : en:00:59:16.261
  59. 01:02:15.899                             : en:01:02:15.899
  60. 01:06:47.587                             : en:01:06:47.587
  61. 01:09:58.152                             : en:01:09:58.152
  62. 01:15:16.178                             : en:01:15:16.178
  63. 01:21:37.059                             : en:01:21:37.059
  64. 01:28:58.833                             : en:01:28:58.833
  65. 01:32:27.041                             : en:01:32:27.041
复制代码




                                       
                                       

                                       
                                       
                                       




回复

使用道具 举报

懒得打字嘛,点击右侧快捷回复 【右侧内容,后台自定义】
您需要登录后才可以回帖 登录 | 立即加入

本版积分规则

Archiver|小黑屋| 蓝光电影网 |网站地图

Copyright © 2021 Comsenz Inc. Powered by 蓝光电影网

蓝光电影网

本站内容由用户自主分享和转载自互联网,转载目的在于传递更多信息,并不代表本网赞同其观点和对其真实性负责。

如有侵权、违反国家法律政策行为,请联系我们,我们会第一时间及时清除和处理!

举报反馈邮箱:[email protected]

快速回复 返回顶部 返回列表