找回密码

蓝光电影网

查看: 20|回复: 0

[科幻] 同步/共时 Synchronic.2019.1080p.BluRay.x264.DTS-HD.MA.5.1-MT 15.02GB

[复制链接]
蓝光币
382
发表于 2021-1-17 09:24:25 | 显示全部楼层 |阅读模式
[img][/img]

◎译  名 同步/共时/药命时空(台)
◎片  名 Synchronic
◎年  代 2019
◎产  地 美国
◎类  别 科幻 / 可骇
◎语  言 英语
◎上映日期 2019-09-07(多伦多电影节) / 2020-10-23(美国)
◎IMDb评分  6.3/10 from 2808 users
◎IMDb链接  https://www.imdb.com/title/tt9016974/
◎豆瓣评分 5.8/10 from 307 users
◎豆瓣链接 https://movie.douban.com/subject/30328589/
◎片  长 101分钟
◎导  演 贾斯汀·本森 Justin Benson / 艾伦·穆尔黑德 Aaron Moorhead
◎编  剧 贾斯汀·本森 Justin Benson
◎主  演 詹米·多南 Jamie Dornan
       安东尼·麦凯 Anthony Mackie
       艾丽·艾恩奈兹 Ally Ioannides
       小比尔·奥伯斯特 Bill Oberst Jr.
       马丁·巴特斯·布拉德福德 Martin Bats Bradford
       劳伦斯·特纳 Lawrence Turner
       亚伦·格罗本 Aaron Groben
       亚当·J·耶安德 Adam J. Yeend
       Jean-Pierre Vertus
       拉米兹·蒙塞夫 Ramiz Monsef
◎标  签 科幻 | 惊悚 | 美国 | 美国电影 | 2019 | 电影 | 贾斯汀·本森 | 詹米·多南
◎简  介


  安东尼·麦凯、詹米·多南加盟科幻惊悚片[同步](Synchronic,暂译)。艾伦·穆尔黑德、贾斯汀·本森([无尽])执导,贾斯汀·本森操刀剧本。麦凯、多南在片中饰演新奥尔良两名医护职员,一种古怪药物的出现致使了一系列可骇灭亡事务,两人的生活也被完全打乱。XYZ Films负责该片国际刊行。
  1. Video
  2. ID                                       : 1
  3. Format                                   : AVC
  4. Format/Info                              : Advanced Video Codec
  5. Format profile                           : [email protected]
  6. Format settings                          : CABAC / 5 Ref Frames
  7. Format settings, CABAC                   : Yes
  8. Format settings, Reference frames        : 5 frames
  9. Codec ID                                 : V_MPEG4/ISO/AVC
  10. Duration                                 : 1 h 41 min
  11. Bit rate                                 : 18.7 Mb/s
  12. Width                                    : 1 920 pixels
  13. Height                                   : 804 pixels
  14. Display aspect ratio                     : 2.40:1
  15. Frame rate mode                          : Constant
  16. Frame rate                               : 23.976 (24000/1001/189150) FPS
  17. Color space                              : YUV
  18. Chroma subsampling                       : 4:2:0
  19. Bit depth                                : 8 bits
  20. Scan type                                : Progressive
  21. Bits/(Pixel*Frame)                       : 0.506
  22. Stream size                              : 13.3 GiB (89%)
  23. Writing library                          : x264 core 157 r2938 2b00a84 [email protected] Mod
  24. Encoding settings                        : cabac=1 / ref=5 / deblock=1:-3:-3 / analyse=0x3:0x133 / me=umh / subme=10 / psy=1 / psy_rd=1.05:0.00 / mixed_ref=1 / me_range=32 / chroma_me=1 / trellis=2 / 8x8dct=1 / cqm=0 / deadzone=21,11 / fast_pskip=0 / chroma_qp_offset=-2 / threads=12 / lookahead_threads=2 / sliced_threads=0 / nr=0 / decimate=0 / interlaced=0 / bluray_compat=0 / constrained_intra=0 / bframes=8 / b_pyramid=2 / b_adapt=2 / b_bias=0 / direct=3 / weightb=1 / open_gop=0 / weightp=2 / keyint=250 / keyint_min=24 / scenecut=40 / intra_refresh=0 / rc_lookahead=250 / rc=crf / mbtree=0 / crf=16.8 / qcomp=0.60 / qpmin=0 / qpmax=69 / qpstep=4 / vbv_maxrate=62500 / vbv_bufsize=78125 / crf_max=0.0 / nal_hrd=none / filler=0 / ip_ratio=1.30 / pb_ratio=1.20 / aq=3:0.80
  25. Language                                 : English
  26. Default                                  : Yes
  27. Forced                                   : No
  28. Color range                              : Limited
  29. Color primaries                          : BT.709
  30. Matrix coefficients                      : BT.709
  31. Audio
  32. ID                                       : 2
  33. Format                                   : DTS XLL
  34. Format/Info                              : Digital Theater Systems
  35. Commercial name                          : DTS-HD Master Audio
  36. Codec ID                                 : A_DTS
  37. Duration                                 : 1 h 41 min
  38. Bit rate mode                            : Variable
  39. Bit rate                                 : 2 352 kb/s
  40. Channel(s)                               : 6 channels
  41. Channel layout                           : C L R Ls Rs LFE
  42. Sampling rate                            : 48.0 kHz
  43. Frame rate                               : 93.750 FPS (512 SPF)
  44. Bit depth                                : 16 bits
  45. Compression mode                         : Lossless
  46. Stream size                              : 1.67 GiB (11%)
  47. Title                                    : DTS-HD MA 5.1
  48. Language                                 : English
  49. Default                                  : Yes
  50. Forced                                   : No
  51. Text #1
  52. ID                                       : 3
  53. Format                                   : UTF-8
  54. Codec ID                                 : S_TEXT/UTF8
  55. Codec ID/Info                            : UTF-8 Plain Text
  56. Duration                                 : 1 h 30 min
  57. Bit rate                                 : 46 b/s
  58. Count of elements                        : 982
  59. Stream size                              : 31.1 KiB (0%)
  60. Title                                    : English-SRT
  61. Language                                 : English
  62. Default                                  : Yes
  63. Forced                                   : No
  64. Text #2
  65. ID                                       : 4
  66. Format                                   : PGS
  67. Muxing mode                              : zlib
  68. Codec ID                                 : S_HDMV/PGS
  69. Codec ID/Info                            : Picture based subtitle format used on BDs/HD-DVDs
  70. Duration                                 : 1 h 39 min
  71. Bit rate                                 : 34.8 kb/s
  72. Count of elements                        : 2212
  73. Stream size                              : 24.7 MiB (0%)
  74. Title                                    : English-PGS
  75. Language                                 : English
  76. Default                                  : No
  77. Forced                                   : No
  78. Menu
  79. 00:00:00.000                             : en:Chapter 01
  80. 00:09:49.714                             : en:Chapter 02
  81. 00:17:50.278                             : en:Chapter 03
  82. 00:30:15.897                             : en:Chapter 04
  83. 00:40:31.721                             : en:Chapter 05
  84. 00:51:37.469                             : en:Chapter 06
  85. 01:00:25.163                             : en:Chapter 07
  86. 01:10:15.795                             : en:Chapter 08
  87. 01:15:11.340                             : en:Chapter 09
  88. 01:27:07.722                             : en:Chapter 10
  89. 01:37:18.166                             : en:Chapter 11
复制代码



                                       
                                       

                                       
                                       
                                       




回复

使用道具 举报

懒得打字嘛,点击右侧快捷回复 【右侧内容,后台自定义】
您需要登录后才可以回帖 登录 | 立即加入

本版积分规则

Archiver|小黑屋| 蓝光电影网 |网站地图

Copyright © 2021 Comsenz Inc. Powered by 蓝光电影网

蓝光电影网

本站内容由用户自主分享和转载自互联网,转载目的在于传递更多信息,并不代表本网赞同其观点和对其真实性负责。

如有侵权、违反国家法律政策行为,请联系我们,我们会第一时间及时清除和处理!

举报反馈邮箱:[email protected]

快速回复 返回顶部 返回列表