找回密码

蓝光电影网

查看: 6|回复: 0

[惊悚] 恶魔的默许/魔鬼同意令 The.Assent.2019.720p.BluRay.x264-GETiT 1.71GB

[复制链接]
蓝光币
382
发表于 2020-10-24 12:07:37 | 显示全部楼层 |阅读模式


◎译  名 恶魔的默许/魔鬼赞成令
◎片  名 The Assent
◎年  代 2019
◎产  地 美国
◎类  别 惊悚 / 可骇
◎语  言 英语
◎上映日期 2019-10(多伦多暗黑影展)
◎IMDb评分  4.1/10 from 1145 users
◎IMDb链接  https://www.imdb.com/title/tt9612982/
◎豆瓣评分 4.2/10 from 310 users
◎豆瓣链接 https://movie.douban.com/subject/34834941/
◎导  演 皮尔瑞·雷金纳德·迪奥 Pearry Reginald Teo
◎编  剧 皮尔瑞·雷金纳德·迪奥 Pearry Reginald Teo
◎主  演 罗伯特·卡辛斯基 Robert Kazinsky
       皮特·杰森 Peter Jason
       弗罗伦丝·费佛瑞 Florence Faivre
       道格拉斯·斯派恩 Douglas Spain
       艾琳·迪茨 Eileen Dietz
       Margarita Reyes
       William "Will" Daubert
       莱斯·佩德罗索 Lais Pedroso
◎标  签 可骇 | 驱魔 | 美国 | 惊悚 | 灵异 | 2019 | 诡异 | 美国电影
◎简  介


  After a series of disturbing supernatural events in his home, Joel, a young molikan.com single father, comes to suspect that his young son may be possessed.
  1. Video
  2. ID                                       : 1
  3. Format                                   : AVC
  4. Format/Info                              : Advanced Video Codec
  5. Format profile                           : [email protected]
  6. Format settings                          : CABAC / 8 Ref Frames
  7. Format settings, CABAC                   : Yes
  8. Format settings, Reference frames        : 8 frames
  9. Codec ID                                 : V_MPEG4/ISO/AVC
  10. Duration                                 : 1 h 27 min
  11. Bit rate                                 : 2 144 kb/s
  12. Width                                    : 1 280 pixels
  13. Height                                   : 544 pixels
  14. Display aspect ratio                     : 2.35:1
  15. Frame rate mode                          : Constant
  16. Frame rate                               : 23.976 (24000/1001/189150) FPS
  17. Color space                              : YUV
  18. Chroma subsampling                       : 4:2:0
  19. Bit depth                                : 8 bits
  20. Scan type                                : Progressive
  21. Bits/(Pixel*Frame)                       : 0.128
  22. Stream size                              : 1.31 GiB (77%)
  23. Writing library                          : x264 core 161 r3018 db0d417
  24. Encoding settings                        : cabac=1 / ref=8 / deblock=1:-3:-3 / analyse=0x3:0x133 / me=umh / subme=9 / psy=1 / psy_rd=1.00:0.00 / mixed_ref=1 / me_range=16 / chroma_me=1 / trellis=2 / 8x8dct=1 / cqm=0 / deadzone=21,11 / fast_pskip=1 / chroma_qp_offset=-2 / threads=17 / lookahead_threads=1 / sliced_threads=0 / nr=0 / decimate=1 / interlaced=0 / bluray_compat=0 / constrained_intra=0 / bframes=3 / b_pyramid=2 / b_adapt=2 / b_bias=0 / direct=3 / weightb=1 / open_gop=0 / weightp=2 / keyint=250 / keyint_min=23 / scenecut=40 / intra_refresh=0 / rc_lookahead=60 / rc=crf / mbtree=1 / crf=17.0 / qcomp=0.60 / qpmin=0 / qpmax=69 / qpstep=4 / ip_ratio=1.40 / aq=3:0.80
  25. Language                                 : English
  26. Default                                  : Yes
  27. Forced                                   : No
  28. Color range                              : Limited
  29. Matrix coefficients                      : BT.709

  30. Audio
  31. ID                                       : 2
  32. Format                                   : AC-3
  33. Format/Info                              : Audio Coding 3
  34. Commercial name                          : Dolby Digital
  35. Codec ID                                 : A_AC3
  36. Duration                                 : 1 h 27 min
  37. Bit rate mode                            : Constant
  38. Bit rate                                 : 640 kb/s
  39. Channel(s)                               : 6 channels
  40. Channel layout                           : L R C LFE Ls Rs
  41. Sampling rate                            : 48.0 kHz
  42. Frame rate                               : 31.250 FPS (1536 SPF)
  43. Compression mode                         : Lossy
  44. Stream size                              : 402 MiB (23%)
  45. Title                                    : ac3
  46. Language                                 : English
  47. Service kind                             : Complete Main
  48. Default                                  : Yes
  49. Forced                                   : No

  50. Text #1
  51. ID                                       : 3
  52. Format                                   : PGS
  53. Muxing mode                              : zlib
  54. Codec ID                                 : S_HDMV/PGS
  55. Codec ID/Info                            : Picture based subtitle format used on BDs/HD-DVDs
  56. Duration                                 : 5 s 463 ms
  57. Bit rate                                 : 5 122 b/s
  58. Count of elements                        : 2
  59. Stream size                              : 3.42 KiB (0%)
  60. Title                                    : forced
  61. Language                                 : English
  62. Default                                  : Yes
  63. Forced                                   : No

  64. Text #2
  65. ID                                       : 4
  66. Format                                   : PGS
  67. Muxing mode                              : zlib
  68. Codec ID                                 : S_HDMV/PGS
  69. Codec ID/Info                            : Picture based subtitle format used on BDs/HD-DVDs
  70. Duration                                 : 1 h 23 min
  71. Bit rate                                 : 10.5 kb/s
  72. Count of elements                        : 2020
  73. Stream size                              : 6.26 MiB (0%)
  74. Title                                    : sub
  75. Language                                 : German
  76. Default                                  : No
  77. Forced                                   : No

  78. Menu
  79. 00:00:00.000                             : en:00:00:00.000
  80. 00:10:59.242                             : en:00:10:59.242
  81. 00:22:28.931                             : en:00:22:28.931
  82. 00:33:39.893                             : en:00:33:39.893
  83. 00:41:40.665                             : en:00:41:40.665
  84. 00:55:16.647                             : en:00:55:16.647
  85. 01:05:17.831                             : en:01:05:17.831
  86. 01:19:44.697                             : en:01:19:44.697
复制代码




                                       
                                       

                                       
                                       
                                       




回复

使用道具 举报

懒得打字嘛,点击右侧快捷回复 【右侧内容,后台自定义】
您需要登录后才可以回帖 登录 | 立即加入

本版积分规则

Archiver|小黑屋| 蓝光电影网 |网站地图

Copyright © 2021 Comsenz Inc. Powered by 蓝光电影网

蓝光电影网

本站内容由用户自主分享和转载自互联网,转载目的在于传递更多信息,并不代表本网赞同其观点和对其真实性负责。

如有侵权、违反国家法律政策行为,请联系我们,我们会第一时间及时清除和处理!

举报反馈邮箱:[email protected]

快速回复 返回顶部 返回列表