找回密码

蓝光电影网

查看: 11|回复: 0

[喜剧] 玩具熊回家路 Kooky.2010.1080p.BluRay.x264-LCHD 6.55GB

[复制链接]
蓝光币
382
发表于 2020-8-17 12:57:00 | 显示全部楼层 |阅读模式


◎译  名 玩具熊回家路 / Kooky / Kuky回家 / 库奇 / 酷奇小熊回家记
◎片  名 Kuky se vrací
◎年  代 2010
◎产  地 捷克
◎类  别 笑剧 / 家庭
◎语  言 捷克语
◎上映日期 2010-05-20
◎IMDb评分  7.3/10 from 1087 users
◎IMDb链接  https://www.imdb.com/title/tt1630603
◎豆瓣评分 7.1/10 from 875 users
◎豆瓣链接 https://movie.douban.com/subject/4915055/
◎片  长 92分钟
◎导  演 Jan Sverák
◎编  剧 Jan Sverák
◎主  演 Zdenek Sverák
       Pavel Liska
       Jirí Machácek
       Petr Ctvrtnícek
       Oldrich Kaiser

◎标  签 捷克 | 动画 | 捷克电影 | 木偶 | 2010 | 扬·斯维拉克 | 定格动画 | 动画片
◎简  介

  
  随着时候的流逝和年龄的长大,那些陪伴孩子们度过几多欢畅时光的玩具们,大概陈旧,大概过失,逐步被人忘记和抛弃。小男孩奥德拉自幼由小熊玩具小库陪伴,不外小库已然开线破裂,而且属于不成清洗的玩具,附着在它身上的粉尘和纤维会让奥德拉的哮喘复发。虽然奥德拉一百个不情愿,可是妈妈还是对峙把小库抛弃了。夜幕来临,奥德拉双手合十,衷心祈祷小布可以逃离渣滓场。
  似乎溟溟中有所感应,躺在渣滓堆中的小布站起家来,躲过了碾压机的攻击,也逃走了塑料军团的魔爪。它辗转来到了一片大森林,并相逢森林的保护队长诅咒神。在诅咒神的帮助下,它踏上了布满惊险的回家之路……
◎获奖情况  
  第45届卡罗维发利国际电影节(2010)
  水晶地球仪奖 评委会出格奖 扬·斯维拉克
  水晶地球仪奖(提名) 扬·斯维拉克
  1. Video
  2. ID                                       : 1
  3. Format                                   : AVC
  4. Format/Info                              : Advanced Video Codec
  5. Format profile                           : [email protected]
  6. Format settings                          : CABAC / 5 Ref Frames
  7. Format settings, CABAC                   : Yes
  8. Format settings, Reference frames        : 5 frames
  9. Codec ID                                 : V_MPEG4/ISO/AVC
  10. Duration                                 : 1 h 36 min
  11. Bit rate                                 : 8 182 kb/s
  12. Width                                    : 1 920 pixels
  13. Height                                   : 816 pixels
  14. Display aspect ratio                     : 2.35:1
  15. Frame rate mode                          : Constant
  16. Frame rate                               : 23.976 FPS
  17. Color space                              : YUV
  18. Chroma subsampling                       : 4:2:0
  19. Bit depth                                : 8 bits
  20. Scan type                                : Progressive
  21. Bits/(Pixel*Frame)                       : 0.218
  22. Stream size                              : 5.40 GiB (82%)
  23. Writing library                          : x264 core 110 r1803 04b5966
  24. Encoding settings                        : cabac=1 / ref=5 / deblock=1:-1:-1 / analyse=0x3:0x113 / me=umh / subme=7 / psy=1 / psy_rd=1.00:0.00 / mixed_ref=1 / me_range=16 / chroma_me=1 / trellis=1 / 8x8dct=1 / cqm=0 / deadzone=21,11 / fast_pskip=1 / chroma_qp_offset=-2 / threads=12 / sliced_threads=0 / nr=0 / decimate=1 / interlaced=0 / constrained_intra=0 / bframes=3 / b_pyramid=2 / b_adapt=2 / b_bias=0 / direct=3 / weightb=1 / open_gop=0 / weightp=2 / keyint=250 / keyint_min=23 / scenecut=40 / intra_refresh=0 / rc_lookahead=40 / rc=2pass / mbtree=1 / bitrate=8182 / ratetol=1.0 / qcomp=0.60 / qpmin=0 / qpmax=51 / qpstep=4 / cplxblur=20.0 / qblur=0.5 / vbv_maxrate=50000 / vbv_bufsize=50000 / ip_ratio=1.40 / aq=1:1.00 / nal_hrd=none
  25. Language                                 : Czech
  26. Default                                  : Yes
  27. Forced                                   : Yes

  28. Audio
  29. ID                                       : 2
  30. Format                                   : DTS
  31. Format/Info                              : Digital Theater Systems
  32. Codec ID                                 : A_DTS
  33. Duration                                 : 1 h 36 min
  34. Bit rate mode                            : Constant
  35. Bit rate                                 : 1 509 kb/s
  36. Channel(s)                               : 6 channels
  37. Channel layout                           : C L R Ls Rs LFE
  38. Sampling rate                            : 48.0 kHz
  39. Frame rate                               : 93.750 FPS (512 SPF)
  40. Bit depth                                : 16 bits
  41. Compression mode                         : Lossy
  42. Stream size                              : 1.02 GiB (16%)
  43. Language                                 : Czech
  44. Default                                  : Yes
  45. Forced                                   : Yes

  46. Text
  47. ID                                       : 3
  48. Format                                   : UTF-8
  49. Codec ID                                 : S_TEXT/UTF8
  50. Codec ID/Info                            : UTF-8 Plain Text
  51. Language                                 : English
  52. Default                                  : Yes
  53. Forced                                   : No
复制代码




                                       
                                       

                                       
                                       
                                       




回复

使用道具 举报

懒得打字嘛,点击右侧快捷回复 【右侧内容,后台自定义】
您需要登录后才可以回帖 登录 | 立即加入

本版积分规则

Archiver|小黑屋| 蓝光电影网 |网站地图

Copyright © 2021 Comsenz Inc. Powered by 蓝光电影网

蓝光电影网

本站内容由用户自主分享和转载自互联网,转载目的在于传递更多信息,并不代表本网赞同其观点和对其真实性负责。

如有侵权、违反国家法律政策行为,请联系我们,我们会第一时间及时清除和处理!

举报反馈邮箱:[email protected]

快速回复 返回顶部 返回列表