找回密码

蓝光电影网

查看: 7|回复: 0

[惊悚] 安德森坠落 Anderson.Falls.2020.720p.BluRay.x264-GETiT 3.02GB

[复制链接]
蓝光币
426
发表于 2020-10-20 08:50:58 | 显示全部楼层 |阅读模式


◎译  名 安德森坠落/Darkness Falls/慰妻雪恨/黑暗以后
◎片  名 Anderson Falls
◎年  代 2020
◎产  地 比利时
◎类  别 惊悚
◎语  言 英语
◎上映日期 2020-03-07(格拉斯哥电影节) / 2020-06-12(美国)
◎IMDb评分  4.3/10 from 371 users
◎IMDb链接  https://www.imdb.com/title/tt6647564/
◎豆瓣评分 /10 from 0 users
◎豆瓣链接 https://movie.douban.com/subject/30269570/
◎导  演 朱利安·赛里 Julien Seri
◎编  剧 Giles Daoust
◎主  演 肖恩·阿什莫 Shawn Ashmore
       盖瑞·科尔 Gary Cole
       丹妮拉·阿隆索 Daniella Alonso
       理查德·哈蒙 Richard Harmon
       索尼亚·瓦格尔 Sonya Walger
       法伊娜·乔康 Vahina Giocante
       林·沙烨 Lin Shaye
       大卫·简诺坡罗斯 David Gianopoulos
       Melissa Papel
       斯特凡 Stefania Spampinato
       马龙·杨 Marlon Young
◎标  签 肖恩·阿什莫 | 美国电影 | 美国 | 票圈 | 犯罪 | 林·沙烨 | 惊悚 | [歐美]
◎简  介


  盖瑞·科尔(《傲骨贤妻》)、肖恩·阿什莫将主演[安德森坠落](Anderson Falls,暂译),朱利安·赛里([企业战士])执导。影片故事报告侦察杰夫·安德森(阿什莫饰)的妻子自杀后,他确信她现实上是被谋杀了。安德森专注于他的观察,发现他的妻子是一对父子组成的连环杀手团队的受害者,并起头阻止他们杀戮其他女人。影片将于今年炎天在洛杉矶开拍。
  1. Video
  2. ID                                       : 1
  3. Format                                   : AVC
  4. Format/Info                              : Advanced Video Codec
  5. Format profile                           : [email protected]
  6. Format settings                          : CABAC / 8 Ref Frames
  7. Format settings, CABAC                   : Yes
  8. Format settings, Reference frames        : 8 frames
  9. Codec ID                                 : V_MPEG4/ISO/AVC
  10. Duration                                 : 1 h 24 min
  11. Bit rate                                 : 4 474 kb/s
  12. Width                                    : 1 280 pixels
  13. Height                                   : 534 pixels
  14. Display aspect ratio                     : 2.40:1
  15. Frame rate mode                          : Constant
  16. Frame rate                               : 23.976 (24000/1001/189150) FPS
  17. Color space                              : YUV
  18. Chroma subsampling                       : 4:2:0
  19. Bit depth                                : 8 bits
  20. Scan type                                : Progressive
  21. Bits/(Pixel*Frame)                       : 0.273
  22. Stream size                              : 2.64 GiB (87%)
  23. Writing library                          : x264 core 161 r3018 db0d417
  24. Encoding settings                        : cabac=1 / ref=8 / deblock=1:-3:-3 / analyse=0x3:0x133 / me=umh / subme=9 / psy=1 / psy_rd=1.00:0.00 / mixed_ref=1 / me_range=16 / chroma_me=1 / trellis=2 / 8x8dct=1 / cqm=0 / deadzone=21,11 / fast_pskip=1 / chroma_qp_offset=-2 / threads=17 / lookahead_threads=1 / sliced_threads=0 / nr=0 / decimate=1 / interlaced=0 / bluray_compat=0 / constrained_intra=0 / bframes=3 / b_pyramid=2 / b_adapt=2 / b_bias=0 / direct=3 / weightb=1 / open_gop=0 / weightp=2 / keyint=250 / keyint_min=23 / scenecut=40 / intra_refresh=0 / rc_lookahead=60 / rc=crf / mbtree=1 / crf=17.0 / qcomp=0.60 / qpmin=0 / qpmax=69 / qpstep=4 / ip_ratio=1.40 / aq=3:0.80
  25. Language                                 : English
  26. Default                                  : Yes
  27. Forced                                   : No
  28. Color range                              : Limited
  29. Matrix coefficients                      : BT.709

  30. Audio
  31. ID                                       : 2
  32. Format                                   : AC-3
  33. Format/Info                              : Audio Coding 3
  34. Commercial name                          : Dolby Digital
  35. Codec ID                                 : A_AC3
  36. Duration                                 : 1 h 24 min
  37. Bit rate mode                            : Constant
  38. Bit rate                                 : 640 kb/s
  39. Channel(s)                               : 6 channels
  40. Channel layout                           : L R C LFE Ls Rs
  41. Sampling rate                            : 48.0 kHz
  42. Frame rate                               : 31.250 FPS (1536 SPF)
  43. Compression mode                         : Lossy
  44. Stream size                              : 386 MiB (12%)
  45. Title                                    : ac3
  46. Language                                 : English
  47. Service kind                             : Complete Main
  48. Default                                  : Yes
  49. Forced                                   : No

  50. Text
  51. ID                                       : 3
  52. Format                                   : PGS
  53. Muxing mode                              : zlib
  54. Codec ID                                 : S_HDMV/PGS
  55. Codec ID/Info                            : Picture based subtitle format used on BDs/HD-DVDs
  56. Duration                                 : 1 h 16 min
  57. Bit rate                                 : 21.1 kb/s
  58. Count of elements                        : 1241
  59. Stream size                              : 11.6 MiB (0%)
  60. Title                                    : subs
  61. Language                                 : German
  62. Default                                  : No
  63. Forced                                   : No

  64. Menu
  65. 00:00:00.000                             : en:00:00:00.000
  66. 00:07:57.060                             : en:00:07:57.060
  67. 00:14:20.610                             : en:00:14:20.610
  68. 00:23:21.191                             : en:00:23:21.191
  69. 00:28:26.413                             : en:00:28:26.413
  70. 00:33:25.629                             : en:00:33:25.629
  71. 00:36:53.086                             : en:00:36:53.086
  72. 00:42:26.169                             : en:00:42:26.169
  73. 00:51:58.866                             : en:00:51:58.866
  74. 00:59:57.594                             : en:00:59:57.594
  75. 01:08:51.377                             : en:01:08:51.377
  76. 01:19:55.457                             : en:01:19:55.457
  77. 01:23:58.575                             : en:01:23:58.575
复制代码




                                       
                                       

                                       
                                       
                                       




回复

使用道具 举报

懒得打字嘛,点击右侧快捷回复 【右侧内容,后台自定义】
您需要登录后才可以回帖 登录 | 立即加入

本版积分规则

Archiver|小黑屋| 蓝光电影网 |网站地图

Copyright © 2021 Comsenz Inc. Powered by 蓝光电影网

蓝光电影网

本站内容由用户自主分享和转载自互联网,转载目的在于传递更多信息,并不代表本网赞同其观点和对其真实性负责。

如有侵权、违反国家法律政策行为,请联系我们,我们会第一时间及时清除和处理!

举报反馈邮箱:[email protected]

快速回复 返回顶部 返回列表