找回密码

蓝光电影网

查看: 7|回复: 0

[恐怖] 白昼寒光 Cold.Light.of.Day.1989.1080p.BluRay.x264-GAZER 7.89GB

[复制链接]
蓝光币
382
发表于 2021-2-10 09:16:24 | 显示全部楼层 |阅读模式


◎译  名 白天冷光/Killers Kiss
◎片  名 Cold Light of Day
◎年  代 1989
◎产  地 英国
◎类  别 可骇 / 列传 / 犯罪
◎语  言 英语
◎上映日期 
◎IMDb评分  5.2/10 from 165 users
◎IMDb链接  https://www.imdb.com/title/tt0356476/
◎豆瓣评分 /10 from 0 users
◎豆瓣链接 https://movie.douban.com/subject/11526062/
◎片  长 81分钟
◎主  演 鲍勃·弗莱格 Bob Flag
◎标  签 英国电影 | 犯罪 | 可骇 | 列传 | P-VeniceC入围国际影评人周
◎简  介


  Fictionalized account based on the actions of serial killer Dennis Nilsen.
  1. Video
  2. ID                                       : 1
  3. Format                                   : AVC
  4. Format/Info                              : Advanced Video Codec
  5. Format profile                           : [email protected]
  6. Format settings                          : CABAC / 5 Ref Frames
  7. Format settings, CABAC                   : Yes
  8. Format settings, Reference frames        : 5 frames
  9. Codec ID                                 : V_MPEG4/ISO/AVC
  10. Duration                                 : 1 h 19 min
  11. Bit rate                                 : 13.3 Mb/s
  12. Width                                    : 1 438 pixels
  13. Height                                   : 1 080 pixels
  14. Display aspect ratio                     : 4:3
  15. Frame rate mode                          : Constant
  16. Frame rate                               : 23.976 (24000/1001/189150) FPS
  17. Color space                              : YUV
  18. Chroma subsampling                       : 4:2:0
  19. Bit depth                                : 8 bits
  20. Scan type                                : Progressive
  21. Bits/(Pixel*Frame)                       : 0.358
  22. Stream size                              : 7.41 GiB (94%)
  23. Writing library                          : x264 core 161 r3043 59c0609
  24. Encoding settings                        : cabac=1 / ref=5 / deblock=1:-3:-3 / analyse=0x3:0x133 / me=umh / subme=10 / psy=1 / psy_rd=1.50:0.15 / mixed_ref=1 / me_range=24 / chroma_me=1 / trellis=2 / 8x8dct=1 / cqm=0 / deadzone=21,11 / fast_pskip=0 / chroma_qp_offset=-3 / threads=24 / lookahead_threads=4 / sliced_threads=0 / nr=0 / decimate=0 / interlaced=0 / bluray_compat=0 / constrained_intra=0 / bframes=8 / b_pyramid=2 / b_adapt=2 / b_bias=0 / direct=3 / weightb=1 / open_gop=0 / weightp=2 / keyint=250 / keyint_min=23 / scenecut=40 / intra_refresh=0 / rc_lookahead=60 / rc=crf / mbtree=1 / crf=27.0 / qcomp=0.60 / qpmin=0 / qpmax=69 / qpstep=4 / ip_ratio=1.40 / aq=3:0.50
  25. Default                                  : Yes
  26. Forced                                   : No
  27. Color range                              : Limited
  28. Matrix coefficients                      : BT.709

  29. Audio #1
  30. ID                                       : 2
  31. Format                                   : FLAC
  32. Format/Info                              : Free Lossless Audio Codec
  33. Codec ID                                 : A_FLAC
  34. Duration                                 : 1 h 19 min
  35. Bit rate mode                            : Variable
  36. Bit rate                                 : 651 kb/s
  37. Channel(s)                               : 2 channels
  38. Channel layout                           : L R
  39. Sampling rate                            : 48.0 kHz
  40. Frame rate                               : 11.719 FPS (4096 SPF)
  41. Bit depth                                : 24 bits
  42. Compression mode                         : Lossless
  43. Stream size                              : 371 MiB (5%)
  44. Writing library                          : libFLAC 1.3.2 (UTC 2017-01-01)
  45. Language                                 : English
  46. Default                                  : Yes
  47. Forced                                   : No

  48. Audio #2
  49. ID                                       : 3
  50. Format                                   : AAC LC
  51. Format/Info                              : Advanced Audio Codec Low Complexity
  52. Codec ID                                 : A_AAC-2
  53. Duration                                 : 1 h 19 min
  54. Bit rate                                 : 96.0 kb/s
  55. Channel(s)                               : 2 channels
  56. Channel layout                           : L R
  57. Sampling rate                            : 48.0 kHz
  58. Frame rate                               : 46.875 FPS (1024 SPF)
  59. Compression mode                         : Lossy
  60. Delay relative to video                  : 20 ms
  61. Stream size                              : 55.6 MiB (1%)
  62. Title                                    : Commentary
  63. Language                                 : English
  64. Default                                  : No
  65. Forced                                   : No

  66. Audio #3
  67. ID                                       : 4
  68. Format                                   : AAC LC
  69. Format/Info                              : Advanced Audio Codec Low Complexity
  70. Codec ID                                 : A_AAC-2
  71. Duration                                 : 1 h 19 min
  72. Bit rate                                 : 93.5 kb/s
  73. Channel(s)                               : 2 channels
  74. Channel layout                           : L R
  75. Sampling rate                            : 48.0 kHz
  76. Frame rate                               : 46.875 FPS (1024 SPF)
  77. Compression mode                         : Lossy
  78. Delay relative to video                  : 20 ms
  79. Stream size                              : 53.3 MiB (1%)
  80. Title                                    : Commentary
  81. Language                                 : English
  82. Default                                  : No
  83. Forced                                   : No

  84. Text
  85. ID                                       : 5
  86. Format                                   : PGS
  87. Muxing mode                              : zlib
  88. Codec ID                                 : S_HDMV/PGS
  89. Codec ID/Info                            : Picture based subtitle format used on BDs/HD-DVDs
  90. Duration                                 : 1 h 13 min
  91. Bit rate                                 : 18.7 kb/s
  92. Count of elements                        : 1216
  93. Stream size                              : 9.80 MiB (0%)
  94. Title                                    : SDH
  95. Language                                 : English
  96. Default                                  : No
  97. Forced                                   : No

  98. Menu
  99. 00:00:00.000                             : en:Chapter 01
  100. 00:05:55.397                             : en:Chapter 02
  101. 00:11:11.629                             : en:Chapter 03
  102. 00:17:04.065                             : en:Chapter 04
  103. 00:24:59.123                             : en:Chapter 05
  104. 00:31:07.240                             : en:Chapter 06
  105. 00:38:15.084                             : en:Chapter 07
  106. 00:47:44.612                             : en:Chapter 08
  107. 00:54:13.333                             : en:Chapter 09
  108. 01:00:47.227                             : en:Chapter 10
  109. 01:05:14.786                             : en:Chapter 11
  110. 01:12:22.547                             : en:Chapter 12
复制代码




                                       
                                       

                                       
                                       
                                       




回复

使用道具 举报

懒得打字嘛,点击右侧快捷回复 【右侧内容,后台自定义】
您需要登录后才可以回帖 登录 | 立即加入

本版积分规则

Archiver|小黑屋| 蓝光电影网 |网站地图

Copyright © 2021 Comsenz Inc. Powered by 蓝光电影网

蓝光电影网

本站内容由用户自主分享和转载自互联网,转载目的在于传递更多信息,并不代表本网赞同其观点和对其真实性负责。

如有侵权、违反国家法律政策行为,请联系我们,我们会第一时间及时清除和处理!

举报反馈邮箱:[email protected]

快速回复 返回顶部 返回列表