找回密码

蓝光电影网

查看: 14|回复: 0

[惊悚] 女清洁工/地狱家政妇 The.Cleaning.Lady.2018.720p.BluRay.x264-JustWatch 1.82GB

[复制链接]
蓝光币
386
发表于 2020-10-7 09:04:27 | 显示全部楼层 |阅读模式


◎译  名 女清洁工/天堂家政妇(台)
◎片  名 The Cleaning Lady
◎年  代 2018
◎产  地 美国
◎类  别 惊悚 / 可骇
◎语  言 英语
◎上映日期 2018-08-24(可骇电影节) / 2018-09-15(美国)
◎IMDb评分  5.4/10 from 2192 users
◎IMDb链接  https://www.imdb.com/title/tt7044076/
◎豆瓣评分 5.3/10 from 428 users
◎豆瓣链接 https://movie.douban.com/subject/27179205/
◎片  长 90分钟
◎导  演 乔恩·克劳兹 Jon Knautz
◎编  剧 亚历克西斯·肯德拉 Alexis Kendra / 乔恩·克劳兹 Jon Knautz
◎主  演 亚历克西斯·肯德拉 Alexis Kendra
       斯特里奥·萨万特 Stelio Savante
       瑞秋·艾里格 Rachel Alig
       伊莉莎白·桑迪 Elizabeth Sandy
◎标  签 惊悚 | 可骇 | 美国 | 犯罪 | 2018 | 美国电影 | 变态杀人狂 | 软禁
◎简  介


  As a means to distract herself from an affair, a love-addicted woman befriends a cleaning lady, badly scarred by burns. She soon learns, these scars run much deeper than the surface.
  1. Video
  2. ID                                       : 1
  3. Format                                   : AVC
  4. Format/Info                              : Advanced Video Codec
  5. Format profile                           : [email protected]
  6. Format settings                          : CABAC / 8 Ref Frames
  7. Format settings, CABAC                   : Yes
  8. Format settings, Reference frames        : 8 frames
  9. Codec ID                                 : V_MPEG4/ISO/AVC
  10. Duration                                 : 1 h 30 min
  11. Bit rate                                 : 2 238 kb/s
  12. Width                                    : 1 280 pixels
  13. Height                                   : 544 pixels
  14. Display aspect ratio                     : 2.35:1
  15. Frame rate mode                          : Constant
  16. Frame rate                               : 23.976 (24000/1001/189150) FPS
  17. Color space                              : YUV
  18. Chroma subsampling                       : 4:2:0
  19. Bit depth                                : 8 bits
  20. Scan type                                : Progressive
  21. Bits/(Pixel*Frame)                       : 0.134
  22. Stream size                              : 1.41 GiB (78%)
  23. Writing library                          : x264 core 161 r3018 db0d417
  24. Encoding settings                        : cabac=1 / ref=8 / deblock=1:-3:-3 / analyse=0x3:0x133 / me=umh / subme=9 / psy=1 / psy_rd=1.00:0.00 / mixed_ref=1 / me_range=16 / chroma_me=1 / trellis=2 / 8x8dct=1 / cqm=0 / deadzone=21,11 / fast_pskip=0 / chroma_qp_offset=-2 / threads=17 / lookahead_threads=1 / sliced_threads=0 / nr=0 / decimate=1 / interlaced=0 / bluray_compat=0 / constrained_intra=0 / bframes=3 / b_pyramid=2 / b_adapt=2 / b_bias=0 / direct=3 / weightb=1 / open_gop=0 / weightp=2 / keyint=250 / keyint_min=23 / scenecut=40 / intra_refresh=0 / rc_lookahead=60 / rc=crf / mbtree=1 / crf=17.0 / qcomp=0.60 / qpmin=0 / qpmax=69 / qpstep=4 / ip_ratio=1.40 / aq=1:1.00
  25. Language                                 : English
  26. Default                                  : Yes
  27. Forced                                   : No

  28. Audio
  29. ID                                       : 2
  30. Format                                   : AC-3
  31. Format/Info                              : Audio Coding 3
  32. Commercial name                          : Dolby Digital
  33. Codec ID                                 : A_AC3
  34. Duration                                 : 1 h 30 min
  35. Bit rate mode                            : Constant
  36. Bit rate                                 : 640 kb/s
  37. Channel(s)                               : 6 channels
  38. Channel layout                           : L R C LFE Ls Rs
  39. Sampling rate                            : 48.0 kHz
  40. Frame rate                               : 31.250 FPS (1536 SPF)
  41. Compression mode                         : Lossy
  42. Stream size                              : 413 MiB (22%)
  43. Language                                 : English
  44. Service kind                             : Complete Main
  45. Default                                  : Yes
  46. Forced                                   : No

  47. Text
  48. ID                                       : 3
  49. Format                                   : PGS
  50. Muxing mode                              : zlib
  51. Codec ID                                 : S_HDMV/PGS
  52. Codec ID/Info                            : Picture based subtitle format used on BDs/HD-DVDs
  53. Duration                                 : 1 h 21 min
  54. Bit rate                                 : 18.0 kb/s
  55. Count of elements                        : 1220
  56. Stream size                              : 10.5 MiB (1%)
  57. Language                                 : German
  58. Default                                  : No
  59. Forced                                   : No

  60. Menu
  61. 00:00:00.000                             : :Kapitel 01
  62. 00:07:18.438                             : :Kapitel 02
  63. 00:14:03.843                             : :Kapitel 03
  64. 00:20:45.244                             : :Kapitel 04
  65. 00:29:20.759                             : :Kapitel 05
  66. 00:38:02.280                             : :Kapitel 06
  67. 00:44:09.647                             : :Kapitel 07
  68. 00:53:00.177                             : :Kapitel 08
  69. 00:59:23.560                             : :Kapitel 09
  70. 01:07:39.055                             : :Kapitel 10
  71. 01:14:43.479                             : :Kapitel 11
  72. 01:19:48.784                             : :Kapitel 12
复制代码



                                       
                                       

                                       
                                       
                                       




回复

使用道具 举报

懒得打字嘛,点击右侧快捷回复 【右侧内容,后台自定义】
您需要登录后才可以回帖 登录 | 立即加入

本版积分规则

Archiver|小黑屋| 蓝光电影网 |网站地图

Copyright © 2021 Comsenz Inc. Powered by 蓝光电影网

蓝光电影网

本站内容由用户自主分享和转载自互联网,转载目的在于传递更多信息,并不代表本网赞同其观点和对其真实性负责。

如有侵权、违反国家法律政策行为,请联系我们,我们会第一时间及时清除和处理!

举报反馈邮箱:[email protected]

快速回复 返回顶部 返回列表