找回密码

蓝光电影网

查看: 13|回复: 0

[恐怖] 极度恐慌/心惊胆战 Panic.Beats.1983.SPANISH.1080p.BluRay.x264.FLAC.2.0-HANDJOB 6.97GB

[复制链接]
蓝光币
382
发表于 2021-2-9 09:47:05 | 显示全部楼层 |阅读模式


◎译  名 极端发急/提心吊胆
◎片  名 Panic Beats
◎年  代 1983
◎产  地 西班牙
◎类  别 可骇
◎语  言 西班牙语
◎上映日期 1983
◎IMDb评分  5.9/10 from 447 users
◎IMDb链接  https://www.imdb.com/title/tt0085824/
◎豆瓣评分 /10 from 0 users
◎豆瓣链接 https://movie.douban.com/subject/2136441/
◎片  长 94 分钟
◎导  演 保罗?纳什 Paul Naschy
◎编  剧 保罗?纳什 Paul Naschy
◎主  演 沙利·布拉沃 Charly Bravo
       保罗?纳什 Paul Naschy
       Frances Ondiviela
       Salvador Sáinz
       José Vivó
       曼努埃尔·萨尔索 Manuel Zarzo
       Lola Gaos
◎标  签 可骇 | cult | 血腥 | 暴力 | 惊悚 | 悬疑 | x264 | tehPARADOX
◎简  介


  PANIC BEATS begins with a totally nude woman with welts on her body, running through a misty forest full of decayed skeletons. A knight on horseback is chasing her, and we soon learn that he is Alaric de Marnac (a wicked character Naschy first created for HORROR RISES FROM THE TOMB), viciously killing her for her unfaithful ways. After the credits role, we are taken to the present where a descendent of Marnac named Paul (Naschy) is married to the wealthy Geneviève (Julia Saly) was has some serious heart problems. Paul decides to take her to his ancestral home in the country for some peace and quiet, but the superstitious-filled setting opens a Pandora’s Box of terrible occurrences.
  
  We soon discover that Paul is a real son-of-a-bitch who plans to scare his wife to death, planning to control her fortune and continue his secret affair with seductive bad girl Mireille (Silvia Miró), who happens to be the niece of the tarot card-reading housekeeper, Mabile (Lola Gaos). Paul’s malevolent scheme works, but he still has to worry about an additional money-hungry mistress (this guy really gets around!), the unforgiving Mabile, as well as new fianceé Mireille who might be hiding a thing or two herself. More grisly murders follow, and the ghost of Marnac returns from hell to punish the most despicable human character in the film.
  
  PANIC BEATS was also written by Naschy (under his real name Jacinto Molina) who injects the film with an old-fashioned spooky house motif, beefed up with a modern movie sense of violence and sexuality. The film offers nothing too innovative storywise, and even Naschy admits on the disc’s extras that it was partly inspired by GASLIGHT and REBECCA, but he seems to just toss in a hodgepodge of exploitation and horror ingredients, while delivering a stylish and enjoyable effort with a number of twists and some genuinely chilling moments. The camera shots and lighting are both effective, and there's even does a cool set-up (much like what Freddie Francis did in THE SKULL and THE CREEPING FLESH) where we see the point of view of Marnac through his dark helmet as he stalks his female prey. Graphically, we are exposed to everything from a plate of bloody eyeballs, to victims being beaten relentlessly with the various Medieval weapons affixed on the house’s walls (for example, someone is axed in the stomach, followed by the soaked entrails oozing out!). Naschy’s most frequent 1980s leading lady, Julia Saly, is not given much to do, but with her offbeat looks, is a nice presence nonetheless. The prominent female star here is Silvia Miró who is seen in the buff frequently, and she certainly makes for some well-appreciated Euro starlet eye candy. Naschy himself is very good in the film, putting on conniving facades, carrying a number of women on a string, being a real malicious bastard, and for the umpteenth time in his career, playing two roles in a one film.
  
  http://www.dvddrive-in.com/reviews/n-s/panicbeats8283.htm
  1. Video
  2. ID                                       : 1
  3. Format                                   : AVC
  4. Format/Info                              : Advanced Video Codec
  5. Format profile                           : [email protected]
  6. Format settings                          : CABAC / 4 Ref Frames
  7. Format settings, CABAC                   : Yes
  8. Format settings, Reference frames        : 4 frames
  9. Codec ID                                 : V_MPEG4/ISO/AVC
  10. Duration                                 : 1 h 33 min
  11. Bit rate                                 : 9 972 kb/s
  12. Width                                    : 1 920 pixels
  13. Height                                   : 1 080 pixels
  14. Display aspect ratio                     : 16:9
  15. Frame rate mode                          : Constant
  16. Frame rate                               : 24.000 FPS
  17. Color space                              : YUV
  18. Chroma subsampling                       : 4:2:0
  19. Bit depth                                : 8 bits
  20. Scan type                                : Progressive
  21. Bits/(Pixel*Frame)                       : 0.200
  22. Stream size                              : 6.49 GiB (93%)
  23. Writing library                          : x264 core 157 r2935 545de2f
  24. Encoding settings                        : cabac=1 / ref=4 / deblock=1:-3:-3 / analyse=0x3:0x133 / me=umh / subme=10 / psy=1 / psy_rd=1.00:0.00 / mixed_ref=1 / me_range=32 / chroma_me=1 / trellis=2 / 8x8dct=1 / cqm=0 / deadzone=21,11 / fast_pskip=0 / chroma_qp_offset=-2 / threads=18 / lookahead_threads=4 / sliced_threads=0 / nr=0 / decimate=0 / interlaced=0 / bluray_compat=0 / constrained_intra=0 / bframes=16 / b_pyramid=2 / b_adapt=2 / b_bias=0 / direct=3 / weightb=1 / open_gop=0 / weightp=1 / keyint=240 / keyint_min=24 / scenecut=40 / intra_refresh=0 / rc_lookahead=60 / rc=crf / mbtree=0 / crf=23.2 / qcomp=0.60 / qpmin=0 / qpmax=69 / qpstep=4 / vbv_maxrate=62500 / vbv_bufsize=78125 / crf_max=0.0 / nal_hrd=none / filler=0 / ip_ratio=1.40 / pb_ratio=1.30 / aq=2:1.00
  25. Default                                  : Yes
  26. Forced                                   : No
  27. Color range                              : Limited
  28. Color primaries                          : BT.709
  29. Transfer characteristics                 : BT.709
  30. Matrix coefficients                      : BT.709
  31. Audio #1
  32. ID                                       : 2
  33. Format                                   : FLAC
  34. Format/Info                              : Free Lossless Audio Codec
  35. Codec ID                                 : A_FLAC
  36. Duration                                 : 1 h 33 min
  37. Bit rate mode                            : Variable
  38. Bit rate                                 : 656 kb/s
  39. Channel(s)                               : 2 channels
  40. Sampling rate                            : 48.0 kHz
  41. Frame rate                               : 11.719 FPS (4096 SPF)
  42. Bit depth                                : 16 bits
  43. Compression mode                         : Lossless
  44. Stream size                              : 437 MiB (6%)
  45. Writing library                          : libFLAC 1.3.4 (UTC 2019-08-05)
  46. Language                                 : Spanish
  47. Default                                  : Yes
  48. Forced                                   : No
  49. Audio #2
  50. ID                                       : 3
  51. Format                                   : AAC LC SBR
  52. Format/Info                              : Advanced Audio Codec Low Complexity with Spectral Band Replication
  53. Commercial name                          : HE-AAC
  54. Format settings                          : Explicit
  55. Codec ID                                 : A_AAC-2
  56. Duration                                 : 1 h 33 min
  57. Bit rate                                 : 80.0 kb/s
  58. Channel(s)                               : 2 channels
  59. Channel layout                           : L R
  60. Sampling rate                            : 48.0 kHz
  61. Frame rate                               : 23.438 FPS (2048 SPF)
  62. Compression mode                         : Lossy
  63. Delay relative to video                  : 31 ms
  64. Stream size                              : 53.3 MiB (1%)
  65. Title                                    : Commentary by Troy Guinn and Rodney Barnett
  66. Language                                 : English
  67. Default                                  : No
  68. Forced                                   : No
  69. Text
  70. ID                                       : 4
  71. Format                                   : UTF-8
  72. Codec ID                                 : S_TEXT/UTF8
  73. Codec ID/Info                            : UTF-8 Plain Text
  74. Duration                                 : 1 h 23 min
  75. Bit rate                                 : 34 b/s
  76. Count of elements                        : 681
  77. Stream size                              : 21.2 KiB (0%)
  78. Language                                 : English
  79. Default                                  : Yes
  80. Forced                                   : No
  81. Menu
  82. 00:00:00.000                             : :Chapter 1
  83. 00:07:41.625                             : :Chapter 2
  84. 00:15:27.583                             : :Chapter 3
  85. 00:22:08.042                             : :Chapter 4
  86. 00:28:46.250                             : :Chapter 5
  87. 00:36:42.750                             : :Chapter 6
  88. 00:48:57.750                             : :Chapter 7
  89. 01:00:57.042                             : :Chapter 8
  90. 01:14:49.500                             : :Chapter 9
  91. 01:22:03.833                             : :Chapter 10
复制代码






                                       
                                       

                                       
                                       
                                       




回复

使用道具 举报

懒得打字嘛,点击右侧快捷回复 【右侧内容,后台自定义】
您需要登录后才可以回帖 登录 | 立即加入

本版积分规则

Archiver|小黑屋| 蓝光电影网 |网站地图

Copyright © 2021 Comsenz Inc. Powered by 蓝光电影网

蓝光电影网

本站内容由用户自主分享和转载自互联网,转载目的在于传递更多信息,并不代表本网赞同其观点和对其真实性负责。

如有侵权、违反国家法律政策行为,请联系我们,我们会第一时间及时清除和处理!

举报反馈邮箱:[email protected]

快速回复 返回顶部 返回列表