找回密码

蓝光电影网

查看: 11|回复: 0

[动作] 地窖奇劫/90分钟惊涛械劫 Way.Down.2021.1080p.BluRay.x264.DTS-MT 11.41GB

[复制链接]
蓝光币
386
发表于 2021-6-8 08:39:29 | 显示全部楼层 |阅读模式


◎译  名 地窖奇劫/90分钟惊涛械劫(港)/The Vault/马德里金库盗数90分钟(台)
◎片  名 Way Down
◎年  代 2021
◎产  地 西班牙
◎类  别 行动 / 犯罪
◎语  言 英语
◎上映日期 2021-01-15(中国台湾) / 2021-03-26(美国) / 2021-11-12(西班牙)
◎豆瓣评分 7.0/10 from 10354 users
◎豆瓣链接 https://movie.douban.com/subject/30456637/
◎片  长 118分钟
◎导  演 豪梅·巴拉格罗 Jaume Balagueró
◎编  剧 安德烈斯·M·科佩尔 Andrés M. Koppel / 米歇尔·加坦比 Michel Gaztambide / 罗恩·阿塞尔 Rowan Athale
◎主  演 弗莱迪·海默 Freddie Highmore
       阿斯特丽德·伯格斯-弗瑞斯贝 àstrid Bergès-Frisbey
       萨姆·赖利 Sam Riley
       利亚姆·坎宁安 Liam Cunningham
       何塞·科罗纳多 José Coronado
       路易斯·托萨尔 Luis Tosar
       埃米利奥·古铁雷斯·卡巴 Emilio Gutiérrez Caba
       阿克塞尔·施泰因 Axel Stein
       法米克·詹森 Famke Janssen
       弗兰克·费斯 Frank Feys
       维森特·希尔 Vicente Gil
       雷格·威尔森 Reg Wilson
       克雷格·史蒂文森 Craig Stevenson
       亨特·特里梅恩 Hunter Tremayne
       大卫·切弗斯 David Chevers
       贾格布·迪森塔 Jacobo Dicenta
       托马斯·德尔·伊思塔 Tomás del Estal
       胡利奥·维莱斯 Julio Vélez
       Simon Cohen
       费兰·特拉萨 Ferran Terraza
       哈维尔·加里多·加西亚 Javier Garrido García
◎标  签 犯罪 | 西班牙 | 悬疑 | 行动 | 2021 | 电影 | 弗莱迪海默 | 欧美行动
◎简  介


  西班牙银行是无与伦比的,绝对没有人能闯得进去,也不成能被人抢劫,没有蓝图、没有材料,世上没有人晓得一百多年前用来建造金库的历史性工法。这个布满刺激的应战激起了汤姆的猎奇心:这个天赋决心找出金库的奥秘,闯进银行的最深处。
  
  方针是丢失已久的宝藏,将在这家银行内保管仅仅十天。在极具魁首风采的艺术观赏家华特的率领之下,汤姆和他的团队要在短短十天内预备好此次的抢案,事成后还要拟好千载难逢的逃窜计划。计划十天,但履行这个计划却只要90分钟:这90分钟是天下杯足球决赛的时候,届时将吸引不计其数的球迷来到西班牙银行的门口。
  1. Video
  2. ID                                       : 1
  3. Format                                   : AVC
  4. Format/Info                              : Advanced Video Codec
  5. Format profile                           : [email protected]
  6. Format settings                          : CABAC / 5 Ref Frames
  7. Format settings, CABAC                   : Yes
  8. Format settings, Reference frames        : 5 frames
  9. Codec ID                                 : V_MPEG4/ISO/AVC
  10. Duration                                 : 1 h 58 min
  11. Bit rate                                 : 12.3 Mb/s
  12. Width                                    : 1 920 pixels
  13. Height                                   : 804 pixels
  14. Display aspect ratio                     : 2.40:1
  15. Frame rate mode                          : Constant
  16. Frame rate                               : 23.976 (24000/1001/189150) FPS
  17. Color space                              : YUV
  18. Chroma subsampling                       : 4:2:0
  19. Bit depth                                : 8 bits
  20. Scan type                                : Progressive
  21. Bits/(Pixel*Frame)                       : 0.332
  22. Stream size                              : 10.2 GiB (89%)
  23. Writing library                          : x264 core 157 r2938 2b00a84 [email protected] Mod
  24. Encoding settings                        : cabac=1 / ref=5 / deblock=1:-3:-3 / analyse=0x3:0x133 / me=umh / subme=10 / psy=1 / psy_rd=1.05:0.00 / mixed_ref=1 / me_range=32 / chroma_me=1 / trellis=2 / 8x8dct=1 / cqm=0 / deadzone=21,11 / fast_pskip=0 / chroma_qp_offset=-2 / threads=12 / lookahead_threads=2 / sliced_threads=0 / nr=0 / decimate=0 / interlaced=0 / bluray_compat=0 / constrained_intra=0 / bframes=8 / b_pyramid=2 / b_adapt=2 / b_bias=0 / direct=3 / weightb=1 / open_gop=0 / weightp=2 / keyint=250 / keyint_min=24 / scenecut=40 / intra_refresh=0 / rc_lookahead=250 / rc=crf / mbtree=0 / crf=16.8 / qcomp=0.60 / qpmin=0 / qpmax=69 / qpstep=4 / vbv_maxrate=62500 / vbv_bufsize=78125 / crf_max=0.0 / nal_hrd=none / filler=0 / ip_ratio=1.30 / pb_ratio=1.20 / aq=3:0.80
  25. Language                                 : English
  26. Default                                  : Yes
  27. Forced                                   : No
  28. Color range                              : Limited
  29. Color primaries                          : BT.709
  30. Matrix coefficients                      : BT.709
  31. Audio
  32. ID                                       : 2
  33. Format                                   : DTS
  34. Format/Info                              : Digital Theater Systems
  35. Codec ID                                 : A_DTS
  36. Duration                                 : 1 h 58 min
  37. Bit rate mode                            : Constant
  38. Bit rate                                 : 1 509 kb/s
  39. Channel(s)                               : 6 channels
  40. Channel layout                           : C L R Ls Rs LFE
  41. Sampling rate                            : 48.0 kHz
  42. Frame rate                               : 93.750 FPS (512 SPF)
  43. Bit depth                                : 24 bits
  44. Compression mode                         : Lossy
  45. Stream size                              : 1.25 GiB (11%)
  46. Language                                 : English
  47. Default                                  : Yes
  48. Forced                                   : No
  49. Text
  50. ID                                       : 3
  51. Format                                   : UTF-8
  52. Codec ID                                 : S_TEXT/UTF8
  53. Codec ID/Info                            : UTF-8 Plain Text
  54. Duration                                 : 1 h 46 min
  55. Bit rate                                 : 38 b/s
  56. Count of elements                        : 994
  57. Stream size                              : 30.1 KiB (0%)
  58. Title                                    : SRT
  59. Language                                 : English
  60. Default                                  : Yes
  61. Forced                                   : No
  62. Menu
  63. 00:00:00.000                             : Chapter 01
  64. 00:06:59.002                             : Chapter 02
  65. 00:10:45.144                             : Chapter 03
  66. 00:20:10.793                             : Chapter 04
  67. 00:25:20.227                             : Chapter 05
  68. 00:32:20.605                             : Chapter 06
  69. 00:39:02.924                             : Chapter 07
  70. 00:46:05.304                             : Chapter 08
  71. 00:52:09.835                             : Chapter 09
  72. 01:00:57.279                             : Chapter 10
  73. 01:05:49.946                             : Chapter 11
  74. 01:12:01.526                             : Chapter 12
  75. 01:19:02.655                             : Chapter 13
  76. 01:25:57.861                             : Chapter 14
  77. 01:33:18.593                             : Chapter 15
  78. 01:39:05.940                             : Chapter 16
  79. 01:45:17.853                             : Chapter 17
  80. 01:49:36.195                             : Chapter 18
复制代码







                                       
                                       

                                       
                                       
                                       




回复

使用道具 举报

懒得打字嘛,点击右侧快捷回复 【右侧内容,后台自定义】
您需要登录后才可以回帖 登录 | 立即加入

本版积分规则

Archiver|小黑屋| 蓝光电影网 |网站地图

Copyright © 2021 Comsenz Inc. Powered by 蓝光电影网

蓝光电影网

本站内容由用户自主分享和转载自互联网,转载目的在于传递更多信息,并不代表本网赞同其观点和对其真实性负责。

如有侵权、违反国家法律政策行为,请联系我们,我们会第一时间及时清除和处理!

举报反馈邮箱:[email protected]

快速回复 返回顶部 返回列表