找回密码

蓝光电影网

查看: 5|回复: 0

[惊悚] 亡命30英里/30英里外 30.Miles.From.Nowhere.2018.720p.BluRay.x264-PussyFoot 1.52GB

[复制链接]
蓝光币
382
发表于 2020-9-2 09:38:09 | 显示全部楼层 |阅读模式


◎译  名 亡命30英里/30英里外/惊魂30英里
◎片  名 30 Miles from Nowhere
◎年  代 2018
◎产  地 美国
◎类  别 惊悚
◎语  言 英语
◎上映日期 2018-11-24(澳大利亚 (Monster Fest))
◎IMDb评分  4.3/10 from 958 users
◎IMDb链接  https://www.imdb.com/title/tt7316576/
◎豆瓣评分 /10 from 0 users
◎豆瓣链接 https://movie.douban.com/subject/30346573/
◎片  长 83分钟
◎编  剧 希娜·柯福德 Seana Kofoed
◎主  演 卡丽·普雷斯顿 Carrie Preston
       罗伯·本内迪克特 Rob Benedict
       安德鲁·罗森博格 Andrew Rothenberg
◎标  签 可骇 | 惊悚 | 美国 | 澳洲 | 剧情 | 美国电影 | 澳大利亚 | EFM2019
◎简  介


  When five college pals return to rural Wisconsin for their estranged friend's funeral, what begins as an uneasy reunion becomes a terrifying fight for survival.
  1. Video
  2. ID                                       : 1
  3. Format                                   : AVC
  4. Format/Info                              : Advanced Video Codec
  5. Format profile                           : [email protected]
  6. Format settings                          : CABAC / 8 Ref Frames
  7. Format settings, CABAC                   : Yes
  8. Format settings, Reference frames        : 8 frames
  9. Codec ID                                 : V_MPEG4/ISO/AVC
  10. Duration                                 : 1 h 24 min
  11. Bit rate                                 : 1 925 kb/s
  12. Width                                    : 1 280 pixels
  13. Height                                   : 536 pixels
  14. Display aspect ratio                     : 2.40:1
  15. Frame rate mode                          : Constant
  16. Frame rate                               : 23.976 (24000/1001/189150) FPS
  17. Color space                              : YUV
  18. Chroma subsampling                       : 4:2:0
  19. Bit depth                                : 8 bits
  20. Scan type                                : Progressive
  21. Bits/(Pixel*Frame)                       : 0.117
  22. Stream size                              : 1.13 GiB (75%)
  23. Writing library                          : x264 core 161 r3018 db0d417
  24. Encoding settings                        : cabac=1 / ref=8 / deblock=1:-3:-3 / analyse=0x3:0x133 / me=umh / subme=9 / psy=1 / psy_rd=1.00:0.00 / mixed_ref=1 / me_range=16 / chroma_me=1 / trellis=2 / 8x8dct=1 / cqm=0 / deadzone=21,11 / fast_pskip=0 / chroma_qp_offset=-2 / threads=17 / lookahead_threads=1 / sliced_threads=0 / nr=0 / decimate=1 / interlaced=0 / bluray_compat=0 / constrained_intra=0 / bframes=3 / b_pyramid=2 / b_adapt=2 / b_bias=0 / direct=3 / weightb=1 / open_gop=0 / weightp=2 / keyint=250 / keyint_min=23 / scenecut=40 / intra_refresh=0 / rc_lookahead=60 / rc=crf / mbtree=1 / crf=17.0 / qcomp=0.60 / qpmin=0 / qpmax=69 / qpstep=4 / ip_ratio=1.40 / aq=1:1.00
  25. Language                                 : English
  26. Default                                  : Yes
  27. Forced                                   : No

  28. Audio
  29. ID                                       : 2
  30. Format                                   : AC-3
  31. Format/Info                              : Audio Coding 3
  32. Commercial name                          : Dolby Digital
  33. Codec ID                                 : A_AC3
  34. Duration                                 : 1 h 24 min
  35. Bit rate mode                            : Constant
  36. Bit rate                                 : 640 kb/s
  37. Channel(s)                               : 6 channels
  38. Channel layout                           : L R C LFE Ls Rs
  39. Sampling rate                            : 48.0 kHz
  40. Frame rate                               : 31.250 FPS (1536 SPF)
  41. Compression mode                         : Lossy
  42. Stream size                              : 386 MiB (25%)
  43. Language                                 : English
  44. Service kind                             : Complete Main
  45. Default                                  : Yes
  46. Forced                                   : No

  47. Text
  48. ID                                       : 3
  49. Format                                   : PGS
  50. Muxing mode                              : zlib
  51. Codec ID                                 : S_HDMV/PGS
  52. Codec ID/Info                            : Picture based subtitle format used on BDs/HD-DVDs
  53. Duration                                 : 1 h 16 min
  54. Bit rate                                 : 36.9 kb/s
  55. Count of elements                        : 1801
  56. Stream size                              : 20.2 MiB (1%)
  57. Language                                 : German
  58. Default                                  : No
  59. Forced                                   : No

  60. Menu
  61. 00:00:00.000                             : :Kapitel 01
  62. 00:03:00.180                             : :Kapitel 02
  63. 00:09:16.306                             : :Kapitel 03
  64. 00:16:54.347                             : :Kapitel 04
  65. 00:28:18.572                             : :Kapitel 05
  66. 00:35:28.251                             : :Kapitel 06
  67. 00:41:50.007                             : :Kapitel 07
  68. 00:48:37.414                             : :Kapitel 08
  69. 00:54:53.749                             : :Kapitel 09
  70. 01:01:29.936                             : :Kapitel 10
  71. 01:11:52.767                             : :Kapitel 11
  72. 01:19:54.999                             : :Kapitel 12
复制代码




                                       
                                       

                                       
                                       
                                       




回复

使用道具 举报

懒得打字嘛,点击右侧快捷回复 【右侧内容,后台自定义】
您需要登录后才可以回帖 登录 | 立即加入

本版积分规则

Archiver|小黑屋| 蓝光电影网 |网站地图

Copyright © 2021 Comsenz Inc. Powered by 蓝光电影网

蓝光电影网

本站内容由用户自主分享和转载自互联网,转载目的在于传递更多信息,并不代表本网赞同其观点和对其真实性负责。

如有侵权、违反国家法律政策行为,请联系我们,我们会第一时间及时清除和处理!

举报反馈邮箱:[email protected]

快速回复 返回顶部 返回列表