找回密码

蓝光电影网

查看: 56|回复: 0

[喜剧] 萌宠流浪记/小麻煩當家 Trouble.2019.1080p.BluRay.x264-PSYCHD 6.57GB

[复制链接]
蓝光币
623
发表于 2020-8-17 11:32:47 | 显示全部楼层 |阅读模式


◎译  名 萌宠流浪记 / 小麻煩當家(台)
◎片  名 Trouble
◎年  代 2019
◎产  地 加拿大 / 美国 / 开曼群岛
◎类  别 笑剧 / 动画 / 家庭
◎语  言 英语
◎上映日期 2019-08-08(泰国)
◎IMDb评分  6.1/10 from 989 users
◎IMDb链接  https://www.imdb.com/title/tt6772524
◎豆瓣评分 6.3/10 from 111 users
◎豆瓣链接 https://movie.douban.com/subject/30476829/
◎片  长 87分钟
◎导  演 Kevin Johnson
◎编  剧 Jordan Katz / Judah Miller / 罗布·缪尔 Rob Muir / John Paul Murphy / Jessica Weiss / 哈兰德·威廉姆斯 Harland Williams
◎主  演 Big Sean
       帕梅拉·阿德龙 Pamela Adlon
       露西·海尔 Lucy Hale
       玛丽莎·贾里特·威诺克 Marissa Jaret Winokur
       维尔摩·瓦尔德拉玛 Wilmer Valderrama
       乔尔·麦克哈尔 Joel McHale
       塞斯·罗林斯 Seth Rollins
       小达蒙·韦恩斯 Damon Wayans Jr.
       奥利维亚·霍尔特 Olivia Holt
       卡洛斯·佩纳 Carlos Pena
       哈兰德·威廉姆斯 Harland Williams
       康拉德·弗农 Conrad Vernon
       迪·布拉雷·贝克尔 Dee Bradley Baker
       凯文·张伯伦 Kevin Chamberlin
       吉姆·卡明斯 Jim Cummings
       曼尼·斯特里茨 Manny Streetz
       杰森·玛耶兹 Jason Mraz
       西泽·米兰 Cesar Millan
       史努比狗狗 Snoop Dogg
       贝蒂·怀特 Betty White
       麦丽·弗拉纳甘 Maile Flanagan
       凯特·希金斯 Kate Higgins
       米歇尔·拉夫 Michelle Ruff
       Keith Silverstein
       弗雷德·塔特西奥 Fred Tatasciore
       柯克·桑顿 Kirk Thornton

◎标  签 动画 | 美国 | 家庭、冒险、搞笑 | 2019 | 笑剧 | 加拿大 | 开曼群岛 | 家庭
◎简  介

  
  Trouble是一只被宠坏了的狗狗,平常生活在一个大豪宅中,这一切都是其他狗狗做梦都难以获得的,直到富有的女仆人归天后,Trouble阴错阳差分开豪宅酿成了一只流浪狗,面临邪恶的天下,他不但需要寻觅一个新家,还要想法摆脱已故仆人贪心的亲戚的绑架和诡计。
  1. Video
  2. ID                                       : 1
  3. Format                                   : AVC
  4. Format/Info                              : Advanced Video Codec
  5. Format profile                           : [email protected]
  6. Format settings                          : CABAC / 4 Ref Frames
  7. Format settings, CABAC                   : Yes
  8. Format settings, Reference frames        : 4 frames
  9. Codec ID                                 : V_MPEG4/ISO/AVC
  10. Duration                                 : 1 h 27 min
  11. Bit rate                                 : 9 196 kb/s
  12. Width                                    : 1 920 pixels
  13. Height                                   : 1 040 pixels
  14. Display aspect ratio                     : 1.85:1
  15. Frame rate mode                          : Constant
  16. Frame rate                               : 24.000 FPS
  17. Color space                              : YUV
  18. Chroma subsampling                       : 4:2:0
  19. Bit depth                                : 8 bits
  20. Scan type                                : Progressive
  21. Bits/(Pixel*Frame)                       : 0.192
  22. Stream size                              : 5.50 GiB (84%)
  23. Writing library                          : x264 core 159 r2991 1771b55
  24. Encoding settings                        : cabac=1 / ref=4 / deblock=1:-3:-3 / analyse=0x3:0x113 / me=umh / subme=8 / psy=1 / psy_rd=1.00:0.00 / mixed_ref=1 / me_range=32 / chroma_me=1 / trellis=2 / 8x8dct=1 / cqm=0 / deadzone=21,11 / fast_pskip=1 / chroma_qp_offset=-2 / threads=32 / lookahead_threads=5 / sliced_threads=0 / nr=0 / decimate=1 / interlaced=0 / bluray_compat=0 / constrained_intra=0 / bframes=3 / b_pyramid=2 / b_adapt=2 / b_bias=0 / direct=3 / weightb=1 / open_gop=0 / weightp=2 / keyint=240 / keyint_min=24 / scenecut=40 / intra_refresh=0 / rc_lookahead=50 / rc=2pass / mbtree=1 / bitrate=9196 / ratetol=1.0 / qcomp=0.60 / qpmin=0 / qpmax=69 / qpstep=4 / cplxblur=20.0 / qblur=0.5 / ip_ratio=1.40 / aq=3:0.80
  25. Default                                  : Yes
  26. Forced                                   : No
  27. Statistics Tags Issue                    : no_variable_data 1970-01-01 00:00:00 / no_variable_data 2010-02-22 21:41:29
  28. FromStats_BitRate                        : 9194342
  29. FromStats_Duration                       : 01:27:40.750000000
  30. FromStats_FrameCount                     : 126258
  31. FromStats_StreamSize                     : 6046141853

  32. Audio
  33. ID                                       : 2
  34. Format                                   : DTS
  35. Format/Info                              : Digital Theater Systems
  36. Codec ID                                 : A_DTS
  37. Duration                                 : 1 h 27 min
  38. Bit rate mode                            : Constant
  39. Bit rate                                 : 1 509 kb/s
  40. Channel(s)                               : 6 channels
  41. Channel layout                           : C L R Ls Rs LFE
  42. Sampling rate                            : 48.0 kHz
  43. Frame rate                               : 93.750 FPS (512 SPF)
  44. Bit depth                                : 24 bits
  45. Compression mode                         : Lossy
  46. Stream size                              : 946 MiB (14%)
  47. Language                                 : English
  48. Default                                  : Yes
  49. Forced                                   : No
  50. Statistics Tags Issue                    : no_variable_data 1970-01-01 00:00:00 / no_variable_data 2010-02-22 21:41:29
  51. FromStats_BitRate                        : 1508999
  52. FromStats_Duration                       : 01:27:40.715000000
  53. FromStats_FrameCount                     : 493192
  54. FromStats_StreamSize                     : 992302304

  55. Menu
  56. 00:00:00.000                             : en:Chapter 01
  57. 00:12:11.250                             : en:Chapter 02
  58. 00:23:03.292                             : en:Chapter 03
  59. 00:30:35.542                             : en:Chapter 04
  60. 00:43:59.792                             : en:Chapter 05
  61. 00:54:18.958                             : en:Chapter 06
  62. 01:06:18.000                             : en:Chapter 07
  63. 01:18:34.583                             : en:Chapter 08
复制代码




                                       
                                       

                                       
                                       
                                       




回复

使用道具 举报

懒得打字嘛,点击右侧快捷回复 【右侧内容,后台自定义】
您需要登录后才可以回帖 登录 | 立即加入

本版积分规则

Archiver|小黑屋| 蓝光电影网 |网站地图

Copyright © 2021 Comsenz Inc. Powered by 蓝光电影网

蓝光电影网

本站内容由用户自主分享和转载自互联网,转载目的在于传递更多信息,并不代表本网赞同其观点和对其真实性负责。

如有侵权、违反国家法律政策行为,请联系我们,我们会第一时间及时清除和处理!

举报反馈邮箱:[email protected]

快速回复 返回顶部 返回列表