找回密码

蓝光电影网

查看: 18|回复: 0

[动作] 哥斯拉大战金刚 Godzilla.vs.Kong.2021.1080p.BluRay.x264.TrueHD.7.1.Atmos-FGT 12.39GB

[复制链接]
蓝光币
382
发表于 2021-6-7 11:20:43 | 显示全部楼层 |阅读模式


◎译  名 哥斯拉大战金刚/GvK/King Kong vs. Godzilla/哥吉拉大战金刚(台)/金刚大战哥斯拉
◎片  名 Godzilla vs Kong
◎年  代 2021
◎产  地 美国,澳大利亚,加拿大,印度
◎类  别 行动 / 科幻 / 冒险
◎语  言 英语,美国手语
◎上映日期 2021-03-24(中国台湾) / 2021-03-26(中国大陆) / 2021-03-31(美国)
◎豆瓣评分 6.4/10 from 222730 users
◎豆瓣链接 https://movie.douban.com/subject/26613692/
◎片  长 113分钟
◎导  演 亚当·温加德 Adam Wingard
◎编  剧 特里·鲁西奥 Terry Rossio / 埃里克·皮尔森 Eric Pearson / 麦克思·鲍伦斯坦 Max Borenstein / 迈克尔·道赫蒂 Michael Dougherty / 扎克·希尔兹 Zach Shields
◎主  演 亚历山大·斯卡斯加德 Alexander Skarsg?rd
       米莉·波比·布朗 Millie Bobby Brown
       丽贝卡·豪尔 Rebecca Hall
       凯莉·霍特尔 Kaylee Hottle
       布莱恩·泰里·亨利 Brian Tyree Henry
       小栗旬 Shun Oguri
       艾莎·冈萨雷斯 Eiza González
       朱利安·迪尼森 Julian Dennison
       兰斯·莱迪克 Lance Reddick
       凯尔·钱德勒 Kyle Chandler
       德米安·比齐尔 Demián Bichir
       哈基姆·凯-卡西姆 Hakeem Kae-Kazim
       钱信伊 Ronny Chieng
       约翰·皮鲁切洛 John Pirruccello
       克里斯·乔克 Chris Chalk
       康兰·卡萨尔 Conlan Casal
       布拉德·麦克默里 Brad McMurray
       本杰明·里格比 Benjamin Rigby
       普里西拉·道伊西 Priscilla Doueihy
       戴维·卡斯蒂洛 David Castillo
       吉姆·帕尔默 Jim Palmer
       柯蒂斯·布什 Curtis Bush
       皮拉·福德 Piéra Forde
       爱丽丝·兰斯伯里 Alice Lanesbury
       肖恩·麦克布莱德 Shawn McBride
       乔尔·皮尔斯 Joel Pierce
       乔恩·奎斯蒂德 Jon Quested
       塔斯尼姆·罗克 Tasneem Roc
       艾梅伯·瓦尔斯 Amber Walls
       迪索·拉莫斯 Diezel Ramos
       田中圭 Kei Tanaka
       渡边谦 Ken Watanabe
◎标  签 怪兽 | 哥斯拉 | 科幻 | 金刚 | 美国 | 行动 | 2021 | 奇异
◎简  介


  这两位好像神衹一般强大的对手于一场壮观的战争中相遇,彼时天下命运正悬于一线。为了找到实在的故里,金刚与他的庇护者们踏上了一次艰难的旅程。与他们一道前行的还有一个年轻的孤后代孩——吉雅,这个女孩与金刚之间存在着一种怪异而强大的慎密联系。但意想不到的是,他们在前行的航道上与愤慨的哥斯拉狭路重逢,也由此在全球引发了一系列破坏。一股无形的气力形成了这两只巨兽之间的庞大抵触,深藏在地心深处的奥秘也由此揭开。
  1. Video
  2. ID                                       : 1
  3. Format                                   : AVC
  4. Format/Info                              : Advanced Video Codec
  5. Format profile                           : [email protected]
  6. Format settings                          : CABAC / 4 Ref Frames
  7. Format settings, CABAC                   : Yes
  8. Format settings, Reference frames        : 4 frames
  9. Codec ID                                 : V_MPEG4/ISO/AVC
  10. Duration                                 : 1 h 53 min
  11. Bit rate                                 : 11.5 Mb/s
  12. Width                                    : 1 920 pixels
  13. Height                                   : 804 pixels
  14. Display aspect ratio                     : 2.40:1
  15. Frame rate mode                          : Constant
  16. Frame rate                               : 23.976 (24000/1001/189150) FPS
  17. Color space                              : YUV
  18. Chroma subsampling                       : 4:2:0
  19. Bit depth                                : 8 bits
  20. Scan type                                : Progressive
  21. Bits/(Pixel*Frame)                       : 0.311
  22. Stream size                              : 9.08 GiB (73%)
  23. Writing library                          : x264 core 148 r2748 97eaef2
  24. Encoding settings                        : cabac=1 / ref=4 / deblock=1:-2:-2 / analyse=0x3:0x113 / me=umh / subme=9 / psy=1 / psy_rd=1.00:0.15 / mixed_ref=1 / me_range=16 / chroma_me=1 / trellis=2 / 8x8dct=1 / cqm=0 / deadzone=21,11 / fast_pskip=1 / chroma_qp_offset=-3 / threads=72 / lookahead_threads=3 / sliced_threads=0 / nr=0 / decimate=1 / interlaced=0 / bluray_compat=0 / constrained_intra=0 / bframes=3 / b_pyramid=2 / b_adapt=1 / b_bias=0 / direct=3 / weightb=1 / open_gop=0 / weightp=2 / keyint=250 / keyint_min=25 / scenecut=40 / intra_refresh=0 / rc_lookahead=50 / rc=2pass / mbtree=1 / bitrate=11500 / ratetol=1.0 / qcomp=0.60 / qpmin=0 / qpmax=69 / qpstep=4 / cplxblur=20.0 / qblur=0.5 / vbv_maxrate=31250 / vbv_bufsize=31250 / nal_hrd=none / filler=0 / ip_ratio=1.40 / aq=1:1.00
  25. Language                                 : English
  26. Default                                  : Yes
  27. Forced                                   : No
  28. Audio #1
  29. ID                                       : 2
  30. Format                                   : MLP FBA 16-ch
  31. Format/Info                              : Meridian Lossless Packing FBA with 16-channel presentation
  32. Commercial name                          : Dolby TrueHD with Dolby Atmos
  33. Codec ID                                 : A_TRUEHD
  34. Duration                                 : 1 h 53 min
  35. Bit rate mode                            : Variable
  36. Bit rate                                 : 3 455 kb/s
  37. Maximum bit rate                         : 5 742 kb/s
  38. Channel(s)                               : 8 channels
  39. Channel layout                           : L R C LFE Ls Rs Lb Rb
  40. Sampling rate                            : 48.0 kHz
  41. Frame rate                               : 1 200.000 FPS (40 SPF)
  42. Compression mode                         : Lossless
  43. Stream size                              : 2.73 GiB (22%)
  44. Title                                    : TrueHD 7.1. Atmos
  45. Language                                 : English
  46. Default                                  : Yes
  47. Forced                                   : No
  48. Number of dynamic objects                : 11
  49. Bed channel count                        : 1 channel
  50. Bed channel configuration                : LFE
  51. Audio #2
  52. ID                                       : 3
  53. Format                                   : AC-3
  54. Format/Info                              : Audio Coding 3
  55. Commercial name                          : Dolby Digital
  56. Codec ID                                 : A_AC3
  57. Duration                                 : 1 h 53 min
  58. Bit rate mode                            : Constant
  59. Bit rate                                 : 640 kb/s
  60. Channel(s)                               : 6 channels
  61. Channel layout                           : L R C LFE Ls Rs
  62. Sampling rate                            : 48.0 kHz
  63. Frame rate                               : 31.250 FPS (1536 SPF)
  64. Compression mode                         : Lossy
  65. Stream size                              : 518 MiB (4%)
  66. Title                                    : DD 5.1
  67. Language                                 : English
  68. Service kind                             : Complete Main
  69. Default                                  : No
  70. Forced                                   : No
  71. Text #1
  72. ID                                       : 4
  73. Format                                   : UTF-8
  74. Codec ID                                 : S_TEXT/UTF8
  75. Codec ID/Info                            : UTF-8 Plain Text
  76. Duration                                 : 1 h 45 min
  77. Bit rate                                 : 37 b/s
  78. Count of elements                        : 923
  79. Stream size                              : 28.7 KiB (0%)
  80. Title                                    : SRT
  81. Language                                 : English
  82. Default                                  : Yes
  83. Forced                                   : No
  84. Text #2
  85. ID                                       : 5
  86. Format                                   : PGS
  87. Muxing mode                              : zlib
  88. Codec ID                                 : S_HDMV/PGS
  89. Codec ID/Info                            : Picture based subtitle format used on BDs/HD-DVDs
  90. Duration                                 : 1 h 45 min
  91. Bit rate                                 : 31.2 kb/s
  92. Count of elements                        : 2707
  93. Stream size                              : 23.7 MiB (0%)
  94. Language                                 : English
  95. Default                                  : No
  96. Forced                                   : No
  97. Text #3
  98. ID                                       : 6
  99. Format                                   : PGS
  100. Muxing mode                              : zlib
  101. Codec ID                                 : S_HDMV/PGS
  102. Codec ID/Info                            : Picture based subtitle format used on BDs/HD-DVDs
  103. Duration                                 : 1 h 52 min
  104. Bit rate                                 : 18.4 kb/s
  105. Count of elements                        : 1836
  106. Stream size                              : 14.7 MiB (0%)
  107. Language                                 : French
  108. Default                                  : No
  109. Forced                                   : No
  110. Text #4
  111. ID                                       : 7
  112. Format                                   : PGS
  113. Muxing mode                              : zlib
  114. Codec ID                                 : S_HDMV/PGS
  115. Codec ID/Info                            : Picture based subtitle format used on BDs/HD-DVDs
  116. Duration                                 : 1 h 52 min
  117. Bit rate                                 : 22.5 kb/s
  118. Count of elements                        : 1764
  119. Stream size                              : 18.1 MiB (0%)
  120. Language                                 : Spanish
  121. Default                                  : No
  122. Forced                                   : No
  123. Text #5
  124. ID                                       : 8
  125. Format                                   : PGS
  126. Muxing mode                              : zlib
  127. Codec ID                                 : S_HDMV/PGS
  128. Codec ID/Info                            : Picture based subtitle format used on BDs/HD-DVDs
  129. Duration                                 : 1 h 52 min
  130. Bit rate                                 : 22.0 kb/s
  131. Count of elements                        : 1764
  132. Stream size                              : 17.7 MiB (0%)
  133. Language                                 : Portuguese
  134. Default                                  : No
  135. Forced                                   : No
  136. Text #6
  137. ID                                       : 9
  138. Format                                   : PGS
  139. Muxing mode                              : zlib
  140. Codec ID                                 : S_HDMV/PGS
  141. Codec ID/Info                            : Picture based subtitle format used on BDs/HD-DVDs
  142. Duration                                 : 1 h 44 min
  143. Bit rate                                 : 1 388 b/s
  144. Count of elements                        : 154
  145. Stream size                              : 1.04 MiB (0%)
  146. Language                                 : French
  147. Default                                  : No
  148. Forced                                   : No
  149. Menu
  150. 00:00:00.000                             : Chapter 01
  151. 00:09:51.591                             : Chapter 02
  152. 00:20:07.498                             : Chapter 03
  153. 00:29:02.366                             : Chapter 04
  154. 00:38:39.734                             : Chapter 05
  155. 00:49:15.995                             : Chapter 06
  156. 00:57:17.017                             : Chapter 07
  157. 01:09:07.977                             : Chapter 08
  158. 01:18:33.876                             : Chapter 09
  159. 01:30:06.109                             : Chapter 10
  160. 01:41:58.946                             : Chapter 11
复制代码







                                       
                                       

                                       
                                       
                                       




回复

使用道具 举报

懒得打字嘛,点击右侧快捷回复 【右侧内容,后台自定义】
您需要登录后才可以回帖 登录 | 立即加入

本版积分规则

Archiver|小黑屋| 蓝光电影网 |网站地图

Copyright © 2021 Comsenz Inc. Powered by 蓝光电影网

蓝光电影网

本站内容由用户自主分享和转载自互联网,转载目的在于传递更多信息,并不代表本网赞同其观点和对其真实性负责。

如有侵权、违反国家法律政策行为,请联系我们,我们会第一时间及时清除和处理!

举报反馈邮箱:[email protected]

快速回复 返回顶部 返回列表