找回密码

蓝光电影网

查看: 19|回复: 0

[恐怖] 暗室 Darkroom.1989.1080p.BluRay.x264-GAZER 12.16GB

[复制链接]
蓝光币
426
发表于 2021-2-6 18:16:43 | 显示全部楼层 |阅读模式


◎译  名 暗室
◎片  名 Darkroom
◎年  代 1989
◎产  地 美国
◎类  别 可骇
◎语  言 英语
◎上映日期 1989-06-07(英国)
◎IMDb评分  4.6/10 from 287 users
◎IMDb链接  https://www.imdb.com/title/tt0099366/
◎豆瓣评分 /10 from 0 users
◎豆瓣链接 https://movie.douban.com/subject/3205787/
◎片  长 93分钟
◎导  演 Terrence O'Hara / 尼科·马斯托拉基斯 Nico Mastorakis
◎编  剧 Rick Pamplin
◎主  演 Aarin Teich
◎标  签 可骇 | 惊悚 | 美国 | 血腥 | 变态 | 犯罪 | 暴力 | 悬疑
◎简  介


  珍妮特回抵家中,发现自己的妹妹宝拉被谋杀了。在男友斯蒂夫的帮助下,她起头寻觅杀戮宝拉的真凶。但当变态杀人狂真相毕露的时辰,珍妮特和她的家人成了他狂热进犯的方针。该片将您带到心灵扭曲的边沿,可谓一部实在的可骇片。
  1. Video
  2. ID                                       : 1
  3. Format                                   : AVC
  4. Format/Info                              : Advanced Video Codec
  5. Format profile                           : [email protected]
  6. Format settings                          : CABAC / 4 Ref Frames
  7. Format settings, CABAC                   : Yes
  8. Format settings, Reference frames        : 4 frames
  9. Codec ID                                 : V_MPEG4/ISO/AVC
  10. Duration                                 : 1 h 25 min
  11. Bit rate                                 : 17.9 Mb/s
  12. Width                                    : 1 920 pixels
  13. Height                                   : 1 036 pixels
  14. Display aspect ratio                     : 1.85:1
  15. Frame rate mode                          : Constant
  16. Frame rate                               : 23.976 (24000/1001/189150) FPS
  17. Color space                              : YUV
  18. Chroma subsampling                       : 4:2:0
  19. Bit depth                                : 8 bits
  20. Scan type                                : Progressive
  21. Bits/(Pixel*Frame)                       : 0.376
  22. Stream size                              : 10.7 GiB (88%)
  23. Writing library                          : x264 core 161 r3027 4121277
  24. Encoding settings                        : cabac=1 / ref=4 / deblock=1:-3:-3 / analyse=0x3:0x133 / me=umh / subme=10 / psy=1 / psy_rd=1.50:0.15 / mixed_ref=1 / me_range=24 / chroma_me=1 / trellis=2 / 8x8dct=1 / cqm=0 / deadzone=21,11 / fast_pskip=0 / chroma_qp_offset=-3 / threads=24 / lookahead_threads=4 / sliced_threads=0 / nr=0 / decimate=0 / interlaced=0 / bluray_compat=0 / constrained_intra=0 / bframes=8 / b_pyramid=2 / b_adapt=2 / b_bias=0 / direct=3 / weightb=1 / open_gop=0 / weightp=2 / keyint=250 / keyint_min=23 / scenecut=40 / intra_refresh=0 / rc_lookahead=60 / rc=crf / mbtree=1 / crf=21.0 / qcomp=0.60 / qpmin=0 / qpmax=69 / qpstep=4 / ip_ratio=1.40 / aq=3:0.50
  25. Default                                  : Yes
  26. Forced                                   : No
  27. Color range                              : Limited
  28. Matrix coefficients                      : BT.709

  29. Audio
  30. ID                                       : 2
  31. Format                                   : DTS XLL
  32. Format/Info                              : Digital Theater Systems
  33. Commercial name                          : DTS-HD Master Audio
  34. Codec ID                                 : A_DTS
  35. Duration                                 : 1 h 25 min
  36. Bit rate mode                            : Variable
  37. Bit rate                                 : 2 448 kb/s
  38. Channel(s)                               : 6 channels
  39. Channel layout                           : C L R Ls Rs LFE
  40. Sampling rate                            : 48.0 kHz
  41. Frame rate                               : 93.750 FPS (512 SPF)
  42. Bit depth                                : 24 bits
  43. Compression mode                         : Lossless
  44. Stream size                              : 1.46 GiB (12%)
  45. Language                                 : English
  46. Default                                  : Yes
  47. Forced                                   : No

  48. Text
  49. ID                                       : 3
  50. Format                                   : PGS
  51. Muxing mode                              : zlib
  52. Codec ID                                 : S_HDMV/PGS
  53. Codec ID/Info                            : Picture based subtitle format used on BDs/HD-DVDs
  54. Duration                                 : 1 h 22 min
  55. Bit rate                                 : 32.2 kb/s
  56. Count of elements                        : 1974
  57. Stream size                              : 19.1 MiB (0%)
  58. Title                                    : SDH
  59. Language                                 : English
  60. Default                                  : No
  61. Forced                                   : No

  62. Menu
  63. 00:00:00.000                             : en:Chapter 01
  64. 00:08:49.237                             : en:Chapter 02
  65. 00:15:57.957                             : en:Chapter 03
  66. 00:23:22.901                             : en:Chapter 04
  67. 00:29:48.412                             : en:Chapter 05
  68. 00:37:20.113                             : en:Chapter 06
  69. 00:45:03.200                             : en:Chapter 07
  70. 00:52:04.997                             : en:Chapter 08
  71. 00:59:00.203                             : en:Chapter 09
  72. 01:05:17.247                             : en:Chapter 10
  73. 01:11:34.957                             : en:Chapter 11
  74. 01:18:11.437                             : en:Chapter 12
复制代码




                                       
                                       

                                       
                                       
                                       




回复

使用道具 举报

懒得打字嘛,点击右侧快捷回复 【右侧内容,后台自定义】
您需要登录后才可以回帖 登录 | 立即加入

本版积分规则

Archiver|小黑屋| 蓝光电影网 |网站地图

Copyright © 2021 Comsenz Inc. Powered by 蓝光电影网

蓝光电影网

本站内容由用户自主分享和转载自互联网,转载目的在于传递更多信息,并不代表本网赞同其观点和对其真实性负责。

如有侵权、违反国家法律政策行为,请联系我们,我们会第一时间及时清除和处理!

举报反馈邮箱:[email protected]

快速回复 返回顶部 返回列表