找回密码

蓝光电影网

查看: 50|回复: 0

[爱情] 博览会/坠入爱河 State.Fair.1945.1080p.BluRay.x264-PSYCHD 6.56GB

[复制链接]
蓝光币
426
发表于 2020-10-19 10:56:39 | 显示全部楼层 |阅读模式


◎译  名 展览会/坠入爱河
◎片  名 State Fair
◎年  代 1945
◎产  地 美国
◎类  别 恋爱 / 歌舞
◎语  言 英语
◎上映日期 1945-08-30
◎IMDb评分  7/10 from 3546 users
◎IMDb链接  https://www.imdb.com/title/tt0038116/
◎豆瓣评分 7.4/10 from 107 users
◎豆瓣链接 https://movie.douban.com/subject/1292544/
◎片  长 100 分钟
◎导  演 沃尔特·朗 Walter Lang
◎编  剧 奥斯卡·汉默斯坦二世 Oscar Hammerstein II / 保罗·格林 Paul Green / 菲利普·斯通 Philip Stong
◎主  演 珍妮·克雷恩 Jeanne Crain
       达纳·安德鲁斯 Dana Andrews
       迪克·海默斯 Dick Haymes
◎标  签 美国 | 恋爱 | 歌舞 | 歌舞片 | 美国电影 | 1940s | 1945 | 音乐
◎简  介


  这是一部想当使人愉悦的歌舞片,获1946年奥斯卡最好音乐歌曲奖和最好音乐—音乐片配乐提名奖!
  
  在美国中心地带,一年一度的“爱与欢笑”的盛会又要举行了,弗雷克一家报名加入,每一小我都想获得大奖 。父亲带着心家的宠物猪参展,一心要获得头奖蓝丝带奖。妈妈也加入了烤馅饼角逐。最高兴的是孩子们,由于他们在盛典上找到了自己的真爱。
◎获奖情况
  第18届奥斯卡金像奖 ?(1946)
  歌舞片最好配乐(提名) CharlesHenderson?/?阿尔弗雷德·纽曼
  最好原创歌曲 奥斯卡·汉默斯坦二世?/?理查德·罗杰斯
  1. Video
  2. ID                                       : 1
  3. Format                                   : AVC
  4. Format/Info                              : Advanced Video Codec
  5. Format profile                           : [email protected]
  6. Format settings                          : CABAC / 5 Ref Frames
  7. Format settings, CABAC                   : Yes
  8. Format settings, Reference frames        : 5 frames
  9. Codec ID                                 : V_MPEG4/ISO/AVC
  10. Duration                                 : 1 h 40 min
  11. Bit rate                                 : 8 530 kb/s
  12. Width                                    : 1 488 pixels
  13. Height                                   : 1 080 pixels
  14. Display aspect ratio                     : 1.378
  15. Frame rate mode                          : Constant
  16. Frame rate                               : 23.976 (24000/1001/189150) FPS
  17. Color space                              : YUV
  18. Chroma subsampling                       : 4:2:0
  19. Bit depth                                : 8 bits
  20. Scan type                                : Progressive
  21. Bits/(Pixel*Frame)                       : 0.221
  22. Stream size                              : 5.89 GiB (90%)
  23. Writing library                          : x264 core 142 r2431 ac76440
  24. Encoding settings                        : cabac=1 / ref=5 / deblock=1:-3:-3 / analyse=0x3:0x113 / me=umh / subme=8 / psy=1 / psy_rd=1.00:0.00 / mixed_ref=1 / me_range=16 / chroma_me=1 / trellis=1 / 8x8dct=1 / cqm=0 / deadzone=21,11 / fast_pskip=1 / chroma_qp_offset=-2 / threads=12 / lookahead_threads=2 / sliced_threads=0 / nr=0 / decimate=1 / interlaced=0 / bluray_compat=0 / constrained_intra=0 / bframes=3 / b_pyramid=2 / b_adapt=2 / b_bias=0 / direct=3 / weightb=1 / open_gop=0 / weightp=2 / keyint=240 / keyint_min=24 / scenecut=40 / intra_refresh=0 / rc_lookahead=50 / rc=2pass / mbtree=1 / bitrate=8530 / ratetol=1.0 / qcomp=0.60 / qpmin=0 / qpmax=69 / qpstep=4 / cplxblur=20.0 / qblur=0.5 / ip_ratio=1.40 / aq=1:1.00
  25. Language                                 : English
  26. Default                                  : Yes
  27. Forced                                   : No

  28. Audio
  29. ID                                       : 2
  30. Format                                   : DTS
  31. Format/Info                              : Digital Theater Systems
  32. Codec ID                                 : A_DTS
  33. Duration                                 : 1 h 40 min
  34. Bit rate mode                            : Constant
  35. Bit rate                                 : 768 kb/s
  36. Channel(s)                               : 1 channel
  37. Channel layout                           : C
  38. Sampling rate                            : 48.0 kHz
  39. Frame rate                               : 93.750 FPS (512 SPF)
  40. Bit depth                                : 24 bits
  41. Compression mode                         : Lossy
  42. Stream size                              : 555 MiB (8%)
  43. Language                                 : English
  44. Default                                  : Yes
  45. Forced                                   : No

  46. Text #1
  47. ID                                       : 3
  48. Format                                   : UTF-8
  49. Codec ID                                 : S_TEXT/UTF8
  50. Codec ID/Info                            : UTF-8 Plain Text
  51. Title                                    : SDH
  52. Language                                 : English
  53. Default                                  : No
  54. Forced                                   : No

  55. Text #2
  56. ID                                       : 4
  57. Format                                   : UTF-8
  58. Codec ID                                 : S_TEXT/UTF8
  59. Codec ID/Info                            : UTF-8 Plain Text
  60. Language                                 : English
  61. Default                                  : No
  62. Forced                                   : No

  63. Menu
  64. 00:00:00.000                             : en:00:00:00.000
  65. 00:01:34.594                             : en:00:01:34.594
  66. 00:03:00.472                             : en:00:03:00.472
  67. 00:07:19.105                             : en:00:07:19.105
  68. 00:13:10.289                             : en:00:13:10.289
  69. 00:15:18.376                             : en:00:15:18.376
  70. 00:19:36.717                             : en:00:19:36.717
  71. 00:26:52.820                             : en:00:26:52.820
  72. 00:33:29.883                             : en:00:33:29.883
  73. 00:35:15.780                             : en:00:35:15.780
  74. 00:37:49.100                             : en:00:37:49.100
  75. 00:42:23.708                             : en:00:42:23.708
  76. 00:45:59.757                             : en:00:45:59.757
  77. 00:48:16.685                             : en:00:48:16.685
  78. 00:56:13.370                             : en:00:56:13.370
  79. 00:59:44.915                             : en:00:59:44.915
  80. 01:01:46.912                             : en:01:01:46.912
  81. 01:06:34.157                             : en:01:06:34.157
  82. 01:09:13.191                             : en:01:09:13.191
  83. 01:16:53.192                             : en:01:16:53.192
  84. 01:19:06.033                             : en:01:19:06.033
  85. 01:24:24.518                             : en:01:24:24.518
  86. 01:26:17.422                             : en:01:26:17.422
  87. 01:28:14.664                             : en:01:28:14.664
  88. 01:31:28.233                             : en:01:31:28.233
  89. 01:34:57.025                             : en:01:34:57.025
  90. 01:36:38.710                             : en:01:36:38.710
  91. 01:39:37.471                             : en:01:39:37.471
复制代码






                                       
                                       

                                       
                                       
                                       




回复

使用道具 举报

懒得打字嘛,点击右侧快捷回复 【右侧内容,后台自定义】
您需要登录后才可以回帖 登录 | 立即加入

本版积分规则

Archiver|小黑屋| 蓝光电影网 |网站地图

Copyright © 2021 Comsenz Inc. Powered by 蓝光电影网

蓝光电影网

本站内容由用户自主分享和转载自互联网,转载目的在于传递更多信息,并不代表本网赞同其观点和对其真实性负责。

如有侵权、违反国家法律政策行为,请联系我们,我们会第一时间及时清除和处理!

举报反馈邮箱:[email protected]

快速回复 返回顶部 返回列表