找回密码

蓝光电影网

查看: 12|回复: 0

[恐怖] 圣人莫德/暗黑圣女 Saint.Maud.2019.1080p.BluRay.x264-SCARE 11.22GB

[复制链接]
蓝光币
382
发表于 2021-2-6 08:47:24 | 显示全部楼层 |阅读模式


◎译  名 圣人莫德/暗黑圣女(台)
◎片  名 Saint Maud
◎年  代 2019
◎产  地 英国
◎类  别 可骇
◎语  言 英语
◎上映日期 2019-09-05(多伦多电影节) / 2021-02-12(美国收集)
◎IMDb评分  7/10 from 4526 users
◎IMDb链接  https://www.imdb.com/title/tt7557108/
◎豆瓣评分 6.2/10 from 618 users
◎豆瓣链接 https://movie.douban.com/subject/34805216/
◎片  长 84分钟
◎导  演 罗斯·格拉斯 Rose Glass
◎编  剧 罗斯·格拉斯 Rose Glass
◎主  演 莫菲德·克拉克 Morfydd Clark
       詹妮弗·艾莉 Jennifer Ehle
       图尔洛夫·科维里 Turlough Convery
       莉莉·奈特 Lily Knight
       罗茜·桑塞姆 Rosie Sansom
       马库斯·赫顿 Marcus Hutton
       费丝·爱德华兹 Faith Edwards
       纲高向井 Takatsuna Mukai
◎标  签 可骇 | 英国 | 惊悚 | 宗教 | A24 | 2019 | 电影 | 2020
◎简  介


  莫德是一位年轻的宗教信徒,她的职业是私人护理员,她在拯救诱人的病人阿曼达的灵魂时,对其发生了极为危险的迷恋。
◎获奖情况
  第23届英国自力电影奖 ?(2020)
  最好英国自力电影(提名)
  最好导演(提名) 罗斯·格拉斯
  最好新人导演(提名) 罗斯·格拉斯
  最好编剧(提名) 罗斯·格拉斯
  最好女配角(提名) 莫菲德·克拉克
  最好女配角(提名) 詹妮弗·艾莉
  最好新人编剧(提名) 罗斯·格拉斯
  制片冲破(提名)
  最好选角(提名)
  最好摄影
  最好打扮设想(提名)
  最好剪辑(提名)
  最好化装与发型设想(提名)
  最好音乐(提名)
  最好艺术指导(提名)
  最好音效(提名)
  最好视效(提名)
  
  第41届伦敦影评人协会奖 ?(2021)
  年度电影(提名)
  年度导演(提名) 罗斯·格拉斯
  年度英国/爱尔兰电影(提名)
  年度编剧(提名) 罗斯·格拉斯
  年度女配角(提名) 莫菲德·克拉克
  年度女配角(提名) 詹妮弗·艾莉
  年度英国/爱尔兰女演员(提名) 莫菲德·克拉克
  年度冲破英国/爱尔兰电影人(提名) 罗斯·格拉斯
  
  第24届美国在线影评人协会奖 ?(2021)
  最好非北美上映影片
  1. Video
  2. ID                                       : 1
  3. Format                                   : AVC
  4. Format/Info                              : Advanced Video Codec
  5. Format profile                           : [email protected]
  6. Format settings                          : CABAC / 5 Ref Frames
  7. Format settings, CABAC                   : Yes
  8. Format settings, Reference frames        : 5 frames
  9. Codec ID                                 : V_MPEG4/ISO/AVC
  10. Duration                                 : 1 h 24 min
  11. Bit rate                                 : 15.8 Mb/s
  12. Width                                    : 1 920 pixels
  13. Height                                   : 804 pixels
  14. Display aspect ratio                     : 2.40:1
  15. Frame rate mode                          : Constant
  16. Frame rate                               : 24.000 FPS
  17. Color space                              : YUV
  18. Chroma subsampling                       : 4:2:0
  19. Bit depth                                : 8 bits
  20. Scan type                                : Progressive
  21. Bits/(Pixel*Frame)                       : 0.425
  22. Stream size                              : 9.29 GiB (83%)
  23. Writing library                          : x264 core 161 r3027 4121277
  24. Encoding settings                        : cabac=1 / ref=5 / deblock=1:-3:-3 / analyse=0x3:0x133 / me=umh / subme=10 / psy=1 / psy_rd=1.20:0.00 / mixed_ref=1 / me_range=24 / chroma_me=1 / trellis=2 / 8x8dct=1 / cqm=0 / deadzone=21,11 / fast_pskip=0 / chroma_qp_offset=-2 / threads=24 / lookahead_threads=4 / sliced_threads=0 / nr=0 / decimate=0 / interlaced=0 / bluray_compat=0 / constrained_intra=0 / bframes=8 / b_pyramid=2 / b_adapt=2 / b_bias=0 / direct=3 / weightb=1 / open_gop=0 / weightp=2 / keyint=250 / keyint_min=24 / scenecut=40 / intra_refresh=0 / rc_lookahead=60 / rc=crf / mbtree=1 / crf=17.0 / qcomp=0.60 / qpmin=0 / qpmax=69 / qpstep=4 / ip_ratio=1.40 / aq=3:0.90
  25. Default                                  : Yes
  26. Forced                                   : No
  27. Color range                              : Limited
  28. Matrix coefficients                      : BT.709

  29. Audio #1
  30. ID                                       : 2
  31. Format                                   : DTS XLL
  32. Format/Info                              : Digital Theater Systems
  33. Commercial name                          : DTS-HD Master Audio
  34. Codec ID                                 : A_DTS
  35. Duration                                 : 1 h 24 min
  36. Bit rate mode                            : Variable
  37. Bit rate                                 : 3 156 kb/s
  38. Channel(s)                               : 6 channels
  39. Channel layout                           : C L R Ls Rs LFE
  40. Sampling rate                            : 48.0 kHz
  41. Frame rate                               : 93.750 FPS (512 SPF)
  42. Bit depth                                : 24 bits
  43. Compression mode                         : Lossless
  44. Stream size                              : 1.86 GiB (17%)
  45. Language                                 : English
  46. Default                                  : Yes
  47. Forced                                   : No

  48. Audio #2
  49. ID                                       : 3
  50. Format                                   : AAC LC
  51. Format/Info                              : Advanced Audio Codec Low Complexity
  52. Codec ID                                 : A_AAC-2
  53. Duration                                 : 1 h 24 min
  54. Bit rate                                 : 115 kb/s
  55. Channel(s)                               : 2 channels
  56. Channel layout                           : L R
  57. Sampling rate                            : 48.0 kHz
  58. Frame rate                               : 46.875 FPS (1024 SPF)
  59. Compression mode                         : Lossy
  60. Delay relative to video                  : 20 ms
  61. Stream size                              : 69.4 MiB (1%)
  62. Title                                    : Commentary
  63. Language                                 : English
  64. Default                                  : No
  65. Forced                                   : No

  66. Text
  67. ID                                       : 4
  68. Format                                   : PGS
  69. Muxing mode                              : zlib
  70. Codec ID                                 : S_HDMV/PGS
  71. Codec ID/Info                            : Picture based subtitle format used on BDs/HD-DVDs
  72. Duration                                 : 1 h 16 min
  73. Bit rate                                 : 19.8 kb/s
  74. Count of elements                        : 1300
  75. Stream size                              : 10.8 MiB (0%)
  76. Title                                    : SDH
  77. Language                                 : English
  78. Default                                  : No
  79. Forced                                   : No

  80. Menu
  81. 00:00:00.000                             : en:Chapter 01
  82. 00:06:41.000                             : en:Chapter 02
  83. 00:13:13.667                             : en:Chapter 03
  84. 00:18:36.417                             : en:Chapter 04
  85. 00:24:18.250                             : en:Chapter 05
  86. 00:30:39.583                             : en:Chapter 06
  87. 00:36:38.667                             : en:Chapter 07
  88. 00:43:20.583                             : en:Chapter 08
  89. 00:50:55.042                             : en:Chapter 09
  90. 00:57:53.583                             : en:Chapter 10
  91. 01:08:33.708                             : en:Chapter 11
  92. 01:15:49.250                             : en:Chapter 12
复制代码




                                       
                                       

                                       
                                       
                                       




回复

使用道具 举报

懒得打字嘛,点击右侧快捷回复 【右侧内容,后台自定义】
您需要登录后才可以回帖 登录 | 立即加入

本版积分规则

Archiver|小黑屋| 蓝光电影网 |网站地图

Copyright © 2021 Comsenz Inc. Powered by 蓝光电影网

蓝光电影网

本站内容由用户自主分享和转载自互联网,转载目的在于传递更多信息,并不代表本网赞同其观点和对其真实性负责。

如有侵权、违反国家法律政策行为,请联系我们,我们会第一时间及时清除和处理!

举报反馈邮箱:[email protected]

快速回复 返回顶部 返回列表