找回密码

蓝光电影网

查看: 8|回复: 0

[惊悚] 红圈 The.Red.Circle.1960.720p.BluRay.x264-UNVEiL 5.18GB

[复制链接]
蓝光币
386
发表于 2020-8-2 08:35:41 | 显示全部楼层 |阅读模式


◎译  名 红圈 / The Crimson Circle
◎片  名 Der Rote Kreis
◎年  代 1960
◎产  地 丹麦 / 西德
◎类  别 惊悚 / 犯罪
◎语  言 德语
◎上映日期 1960-03-02
◎IMDb评分  6.2/10 from 376 users
◎IMDb链接  https://www.imdb.com/title/tt0053228
◎豆瓣评分 0/10 from 0 users
◎豆瓣链接 https://movie.douban.com/subject/3250959/
◎片  长 Germany: 92 分钟
◎导  演 Jürgen Roland
◎编  剧 Edgar Wallace (novel) / Egon Eis (writer)
◎主  演 Renate Ewert
       Klausjürgen Wussow

◎标  签 悬疑 | 已下
◎简  介

  
  A strange, red circle appears on the neck of a man saved from the guillotine. What is its mysterious meaning? Tragically, it turns out to be something of a family curse, as each generation thereafter bears the same sign, which in turn leads to blackmail and murder.
  1. Video
  2. ID                                       : 1
  3. Format                                   : AVC
  4. Format/Info                              : Advanced Video Codec
  5. Format profile                           : [email protected]
  6. Format settings                          : CABAC / 8 Ref Frames
  7. Format settings, CABAC                   : Yes
  8. Format settings, Reference frames        : 8 frames
  9. Codec ID                                 : V_MPEG4/ISO/AVC
  10. Duration                                 : 1 h 31 min
  11. Bit rate                                 : 6 776 kb/s
  12. Width                                    : 1 196 pixels
  13. Height                                   : 720 pixels
  14. Display aspect ratio                     : 5:3
  15. Frame rate mode                          : Constant
  16. Frame rate                               : 24.000 FPS
  17. Color space                              : YUV
  18. Chroma subsampling                       : 4:2:0
  19. Bit depth                                : 8 bits
  20. Scan type                                : Progressive
  21. Bits/(Pixel*Frame)                       : 0.328
  22. Stream size                              : 4.34 GiB (84%)
  23. Writing library                          : x264 core 161 r3018 db0d417
  24. Encoding settings                        : cabac=1 / ref=8 / deblock=1:-3:-3 / analyse=0x3:0x133 / me=umh / subme=9 / psy=1 / psy_rd=1.00:0.00 / mixed_ref=1 / me_range=16 / chroma_me=1 / trellis=2 / 8x8dct=1 / cqm=0 / deadzone=21,11 / fast_pskip=0 / chroma_qp_offset=-2 / threads=22 / lookahead_threads=1 / sliced_threads=0 / nr=0 / decimate=1 / interlaced=0 / bluray_compat=0 / constrained_intra=0 / bframes=3 / b_pyramid=2 / b_adapt=2 / b_bias=0 / direct=3 / weightb=1 / open_gop=0 / weightp=2 / keyint=250 / keyint_min=24 / scenecut=40 / intra_refresh=0 / rc_lookahead=60 / rc=crf / mbtree=1 / crf=18.0 / qcomp=0.60 / qpmin=0 / qpmax=69 / qpstep=4 / ip_ratio=1.40 / aq=1:1.00
  25. Language                                 : English
  26. Default                                  : Yes
  27. Forced                                   : No

  28. Audio #1
  29. ID                                       : 2
  30. Format                                   : AC-3
  31. Format/Info                              : Audio Coding 3
  32. Commercial name                          : Dolby Digital
  33. Codec ID                                 : A_AC3
  34. Duration                                 : 1 h 31 min
  35. Bit rate mode                            : Constant
  36. Bit rate                                 : 640 kb/s
  37. Channel(s)                               : 2 channels
  38. Channel layout                           : L R
  39. Sampling rate                            : 48.0 kHz
  40. Frame rate                               : 31.250 FPS (1536 SPF)
  41. Bit depth                                : 16 bits
  42. Compression mode                         : Lossy
  43. Stream size                              : 420 MiB (8%)
  44. Language                                 : German
  45. Service kind                             : Complete Main
  46. Default                                  : Yes
  47. Forced                                   : No

  48. Audio #2
  49. ID                                       : 3
  50. Format                                   : AC-3
  51. Format/Info                              : Audio Coding 3
  52. Commercial name                          : Dolby Digital
  53. Codec ID                                 : A_AC3
  54. Duration                                 : 1 h 31 min
  55. Bit rate mode                            : Constant
  56. Bit rate                                 : 640 kb/s
  57. Channel(s)                               : 2 channels
  58. Channel layout                           : L R
  59. Sampling rate                            : 48.0 kHz
  60. Frame rate                               : 31.250 FPS (1536 SPF)
  61. Bit depth                                : 16 bits
  62. Compression mode                         : Lossy
  63. Stream size                              : 420 MiB (8%)
  64. Language                                 : English
  65. Service kind                             : Complete Main
  66. Default                                  : No
  67. Forced                                   : No

  68. Text #1
  69. ID                                       : 4
  70. Format                                   : UTF-8
  71. Codec ID                                 : S_TEXT/UTF8
  72. Codec ID/Info                            : UTF-8 Plain Text
  73. Duration                                 : 1 h 31 min
  74. Bit rate                                 : 70 b/s
  75. Count of elements                        : 886
  76. Stream size                              : 47.2 KiB (0%)
  77. Language                                 : English
  78. Default                                  : Yes
  79. Forced                                   : No

  80. Text #2
  81. ID                                       : 5
  82. Format                                   : PGS
  83. Muxing mode                              : zlib
  84. Codec ID                                 : S_HDMV/PGS
  85. Codec ID/Info                            : Picture based subtitle format used on BDs/HD-DVDs
  86. Duration                                 : 1 h 31 min
  87. Bit rate                                 : 37.7 kb/s
  88. Count of elements                        : 1772
  89. Stream size                              : 24.5 MiB (0%)
  90. Language                                 : English
  91. Default                                  : No
  92. Forced                                   : No

  93. Text #3
  94. ID                                       : 6
  95. Format                                   : PGS
  96. Muxing mode                              : zlib
  97. Codec ID                                 : S_HDMV/PGS
  98. Codec ID/Info                            : Picture based subtitle format used on BDs/HD-DVDs
  99. Duration                                 : 1 h 31 min
  100. Bit rate                                 : 40.3 kb/s
  101. Count of elements                        : 1858
  102. Stream size                              : 26.3 MiB (0%)
  103. Language                                 : German
  104. Default                                  : No
  105. Forced                                   : No

  106. Menu
  107. 00:00:00.000                             : :Kapitel 01
  108. 00:12:35.750                             : :Kapitel 02
  109. 00:21:36.125                             : :Kapitel 03
  110. 00:30:59.375                             : :Kapitel 04
  111. 00:42:10.083                             : :Kapitel 05
  112. 00:52:16.958                             : :Kapitel 06
  113. 01:04:23.292                             : :Kapitel 07
  114. 01:15:12.792                             : :Kapitel 08
  115. 01:23:04.167                             : :Kapitel 09
复制代码




                                       
                                       

                                       
                                       
                                       




回复

使用道具 举报

懒得打字嘛,点击右侧快捷回复 【右侧内容,后台自定义】
您需要登录后才可以回帖 登录 | 立即加入

本版积分规则

Archiver|小黑屋| 蓝光电影网 |网站地图

Copyright © 2021 Comsenz Inc. Powered by 蓝光电影网

蓝光电影网

本站内容由用户自主分享和转载自互联网,转载目的在于传递更多信息,并不代表本网赞同其观点和对其真实性负责。

如有侵权、违反国家法律政策行为,请联系我们,我们会第一时间及时清除和处理!

举报反馈邮箱:[email protected]

快速回复 返回顶部 返回列表