找回密码

蓝光电影网

查看: 10|回复: 0

[恐怖] 夺魂连线/60分鐘招魂直播 Host.2020.1080p.BluRay.x264-PiGNUS 4.52GB

[复制链接]
蓝光币
382
发表于 2021-2-5 14:08:50 | 显示全部楼层 |阅读模式


◎译  名 夺魂连线/60分鐘招魂直播(港)/宿主
◎片  名 Host
◎年  代 2020
◎产  地 英国
◎类  别 可骇
◎语  言 英语
◎上映日期 2020-07-30(美国)
◎IMDb评分  6.6/10 from 14676 users
◎IMDb链接  https://www.imdb.com/title/tt12749596/
◎豆瓣评分 6.3/10 from 5384 users
◎豆瓣链接 https://movie.douban.com/subject/35161256/
◎片  长 56分钟
◎导  演 罗布·萨维奇 Rob Savage
◎编  剧 杰玛·赫莉 Gemma Hurley / 罗布·萨维奇 Rob Savage / 杰德·谢帕德 Jed Shepherd
◎主  演 海莉·毕晓普 Haley Bishop
       杰玛·摩尔 Jemma Moore
       艾玛·路易斯·韦伯 Emma Louise Webb
       拉迪娜·德兰多娃 Radina Drandova
       卡罗琳·沃德 Caroline Ward
       艾伦·埃默里斯 Alan Emrys
       帕特里克·沃德 Patrick Ward
       爱德华·利纳德 Edward Linard
       金妮·洛夫特豪斯 Jinny Lofthouse
       塞兰·巴克斯特 Seylan Baxter
       杰克·布莱顿 Jack Brydon
       詹姆斯·斯旺顿 James Swanton
       艾玛·路易斯·廷尼斯伍德 Emma Louise Tinniswood
◎标  签 可骇 | 惊悚 | 英国 | 伪记载片 | 灵异 | 2020 | 收集 | 剧情
◎简  介


  六名好友在居家隔离期找了一位灵媒,想要经过Zoom停止降灵仪式。但是工作的成长远超他们的设想,一个恶灵似乎回应了他们的呼唤,而且侵入了每小我的家中……
◎获奖情况
  第23届英国自力电影奖 ?(2020)
  制片冲破(提名)
  最好剪辑(提名)
  最好音效(提名)
  1. Video
  2. ID                                       : 1
  3. Format                                   : AVC
  4. Format/Info                              : Advanced Video Codec
  5. Format profile                           : [email protected]
  6. Format settings                          : CABAC / 4 Ref Frames
  7. Format settings, CABAC                   : Yes
  8. Format settings, Reference frames        : 4 frames
  9. Codec ID                                 : V_MPEG4/ISO/AVC
  10. Duration                                 : 1 h 7 min
  11. Bit rate                                 : 8 886 kb/s
  12. Width                                    : 1 920 pixels
  13. Height                                   : 1 080 pixels
  14. Display aspect ratio                     : 16:9
  15. Frame rate mode                          : Constant
  16. Frame rate                               : 23.976 (24000/1001/189150) FPS
  17. Color space                              : YUV
  18. Chroma subsampling                       : 4:2:0
  19. Bit depth                                : 8 bits
  20. Scan type                                : Progressive
  21. Bits/(Pixel*Frame)                       : 0.179
  22. Stream size                              : 4.22 GiB (93%)
  23. Writing library                          : x264 core 161 r3043 59c0609
  24. Encoding settings                        : cabac=1 / ref=4 / deblock=1:-3:-3 / analyse=0x3:0x133 / me=umh / subme=9 / psy=1 / psy_rd=1.00:0.00 / mixed_ref=1 / me_range=16 / chroma_me=1 / trellis=2 / 8x8dct=1 / cqm=0 / deadzone=21,11 / fast_pskip=1 / chroma_qp_offset=-2 / threads=34 / lookahead_threads=2 / sliced_threads=0 / nr=0 / decimate=1 / interlaced=0 / bluray_compat=0 / constrained_intra=0 / bframes=3 / b_pyramid=2 / b_adapt=2 / b_bias=0 / direct=3 / weightb=1 / open_gop=0 / weightp=2 / keyint=250 / keyint_min=23 / scenecut=40 / intra_refresh=0 / rc_lookahead=60 / rc=crf / mbtree=1 / crf=15.5 / qcomp=0.60 / qpmin=0 / qpmax=69 / qpstep=4 / ip_ratio=1.40 / aq=1:1.00
  25. Language                                 : English
  26. Default                                  : Yes
  27. Forced                                   : No

  28. Audio
  29. ID                                       : 2
  30. Format                                   : FLAC
  31. Format/Info                              : Free Lossless Audio Codec
  32. Codec ID                                 : A_FLAC
  33. Duration                                 : 1 h 7 min
  34. Bit rate mode                            : Variable
  35. Bit rate                                 : 624 kb/s
  36. Channel(s)                               : 2 channels
  37. Channel layout                           : L R
  38. Sampling rate                            : 48.0 kHz
  39. Frame rate                               : 11.719 FPS (4096 SPF)
  40. Bit depth                                : 24 bits
  41. Compression mode                         : Lossless
  42. Stream size                              : 303 MiB (7%)
  43. Writing library                          : libFLAC 1.2.1 (UTC 2007-09-17)
  44. Language                                 : English
  45. Default                                  : Yes
  46. Forced                                   : No

  47. Text
  48. ID                                       : 3
  49. Format                                   : PGS
  50. Muxing mode                              : zlib
  51. Codec ID                                 : S_HDMV/PGS
  52. Codec ID/Info                            : Picture based subtitle format used on BDs/HD-DVDs
  53. Duration                                 : 1 h 7 min
  54. Bit rate                                 : 29.5 kb/s
  55. Count of elements                        : 2365
  56. Stream size                              : 14.2 MiB (0%)
  57. Title                                    : English SDH
  58. Language                                 : English
  59. Default                                  : No
  60. Forced                                   : No

  61. Menu
  62. 00:00:00.000                             : en:Chapter 01
  63. 00:12:16.819                             : en:Chapter 02
  64. 00:24:43.023                             : en:Chapter 03
  65. 00:37:40.633                             : en:Chapter 04
  66. 00:45:36.651                             : en:Chapter 05
  67. 01:07:29.462                             : en:Chapter 06
  68. 01:07:56.489                             : en:Chapter 07
复制代码




                                       
                                       

                                       
                                       
                                       




回复

使用道具 举报

懒得打字嘛,点击右侧快捷回复 【右侧内容,后台自定义】
您需要登录后才可以回帖 登录 | 立即加入

本版积分规则

Archiver|小黑屋| 蓝光电影网 |网站地图

Copyright © 2021 Comsenz Inc. Powered by 蓝光电影网

蓝光电影网

本站内容由用户自主分享和转载自互联网,转载目的在于传递更多信息,并不代表本网赞同其观点和对其真实性负责。

如有侵权、违反国家法律政策行为,请联系我们,我们会第一时间及时清除和处理!

举报反馈邮箱:[email protected]

快速回复 返回顶部 返回列表