找回密码

蓝光电影网

查看: 7|回复: 0

[喜剧] 晚餐游戏 The.Dinner.Game.1998.1080p.BluRay.x264-USURY 6.56GB

[复制链接]
蓝光币
382
发表于 2020-8-17 10:29:33 | 显示全部楼层 |阅读模式


◎译  名 晚饭游戏 / The Dinner Game / 傻瓜晚宴 / 傻瓜晚饭会
◎片  名 Le d?ner de cons
◎年  代 1998
◎产  地 法国
◎类  别 笑剧
◎语  言 法语
◎上映日期 1998-04-15
◎IMDb评分  7.7/10 from 36483 users
◎IMDb链接  https://www.imdb.com/title/tt0119038
◎豆瓣评分 7.9/10 from 7294 users
◎豆瓣链接 https://movie.douban.com/subject/1306472/
◎片  长 80 分钟
◎导  演 Francis Veber
◎编  剧 Francis Veber
◎主  演 Thierry Lhermitte
       Jacques Villeret
       Francis Huster
       Daniel Prévost

◎标  签 法国 | 笑剧 | 黑色诙谐 | 法国电影 | 1998 | 搞笑 | 电影 | FrancisVeber
◎简  介

  
  一班自命非凡、头角峥嵘的狐朋狗友,相约星期三晚举行“痴人晚宴”。法则很是简单,即是大家只须携一位“痴人之最”共赴晚饭,便能获得丰富奖品。介入者之一皮埃尔(蒂埃里·莱尔米特 Thierry Lhermitte饰)筹算带着新熟悉的皮侬(雅克·维列雷 Jacques Villeret饰)赴宴。皮埃尔本以为这个看似傻里傻气的皮侬,一定是最好人选。但是他的快意算盘却完全失,皮侬把关系颠倒了过来,反而让皮埃尔酿成了被整的工具。因而,一场笑料百出的乌龙工作相继发生。
  这部由法兰西斯·威柏编剧执导的笑剧电影《晚饭游戏》,改编自他写于1993年的舞台剧《假凤虚凰》。一波三折的笑剧情节和极具倾覆性的疯狂笑料,使得本片喝采又叫座。一举拿下1999年第24届凯撒奖,最好男演员、最好男配角和最好剧本(原创或改编)大奖。
  1. Video
  2. ID                                       : 1
  3. Format                                   : AVC
  4. Format/Info                              : Advanced Video Codec
  5. Format profile                           : [email protected]
  6. Format settings                          : CABAC / 5 Ref Frames
  7. Format settings, CABAC                   : Yes
  8. Format settings, Reference frames        : 5 frames
  9. Codec ID                                 : V_MPEG4/ISO/AVC
  10. Duration                                 : 1 h 20 min
  11. Bit rate                                 : 10.2 Mb/s
  12. Width                                    : 1 920 pixels
  13. Height                                   : 824 pixels
  14. Display aspect ratio                     : 2.35:1
  15. Frame rate mode                          : Constant
  16. Frame rate                               : 24.000 FPS
  17. Color space                              : YUV
  18. Chroma subsampling                       : 4:2:0
  19. Bit depth                                : 8 bits
  20. Scan type                                : Progressive
  21. Bits/(Pixel*Frame)                       : 0.270
  22. Stream size                              : 5.72 GiB (87%)
  23. Writing library                          : x264 core 150 r2829 d1fe6fd
  24. Encoding settings                        : cabac=1 / ref=5 / deblock=1:-3:-3 / analyse=0x3:0x133 / me=umh / subme=9 / psy=1 / psy_rd=1.00:0.00 / mixed_ref=1 / me_range=16 / chroma_me=1 / trellis=2 / 8x8dct=1 / cqm=0 / deadzone=21,11 / fast_pskip=0 / chroma_qp_offset=-2 / threads=18 / lookahead_threads=1 / sliced_threads=0 / nr=0 / decimate=1 / interlaced=0 / bluray_compat=0 / constrained_intra=0 / bframes=3 / b_pyramid=2 / b_adapt=1 / b_bias=0 / direct=3 / weightb=1 / open_gop=0 / weightp=2 / keyint=250 / keyint_min=24 / scenecut=40 / intra_refresh=0 / rc_lookahead=50 / rc=2pass / mbtree=1 / bitrate=10241 / ratetol=1.0 / qcomp=0.60 / qpmin=0 / qpmax=69 / qpstep=4 / cplxblur=20.0 / qblur=0.5 / ip_ratio=1.40 / aq=1:1.00
  25. Language                                 : English
  26. Default                                  : Yes
  27. Forced                                   : No

  28. Audio
  29. ID                                       : 2
  30. Format                                   : DTS
  31. Format/Info                              : Digital Theater Systems
  32. Codec ID                                 : A_DTS
  33. Duration                                 : 1 h 19 min
  34. Bit rate mode                            : Constant
  35. Bit rate                                 : 1 509 kb/s
  36. Channel(s)                               : 6 channels
  37. Channel layout                           : C L R Ls Rs LFE
  38. Sampling rate                            : 48.0 kHz
  39. Frame rate                               : 93.750 FPS (512 SPF)
  40. Bit depth                                : 24 bits
  41. Compression mode                         : Lossy
  42. Stream size                              : 862 MiB (13%)
  43. Language                                 : French
  44. Default                                  : Yes
  45. Forced                                   : No

  46. Text
  47. ID                                       : 3
  48. Format                                   : UTF-8
  49. Codec ID                                 : S_TEXT/UTF8
  50. Codec ID/Info                            : UTF-8 Plain Text
  51. Duration                                 : 1 h 18 min
  52. Bit rate                                 : 65 b/s
  53. Count of elements                        : 1238
  54. Stream size                              : 37.6 KiB (0%)
  55. Title                                    : forced
  56. Language                                 : English
  57. Default                                  : Yes
  58. Forced                                   : Yes

  59. Menu
  60. 00:00:00.000                             : en:00:00:00.000
  61. 00:03:14.083                             : en:00:03:14.083
  62. 00:05:26.458                             : en:00:05:26.458
  63. 00:07:32.917                             : en:00:07:32.917
  64. 00:11:21.875                             : en:00:11:21.875
  65. 00:14:34.042                             : en:00:14:34.042
  66. 00:16:04.208                             : en:00:16:04.208
  67. 00:18:45.042                             : en:00:18:45.042
  68. 00:22:43.458                             : en:00:22:43.458
  69. 00:26:50.667                             : en:00:26:50.667
  70. 00:31:51.750                             : en:00:31:51.750
  71. 00:37:14.875                             : en:00:37:14.875
  72. 00:41:09.417                             : en:00:41:09.417
  73. 00:43:34.042                             : en:00:43:34.042
  74. 00:45:56.542                             : en:00:45:56.542
  75. 00:48:06.042                             : en:00:48:06.042
  76. 00:51:59.375                             : en:00:51:59.375
  77. 00:55:46.500                             : en:00:55:46.500
  78. 01:00:10.750                             : en:01:00:10.750
  79. 01:06:54.500                             : en:01:06:54.500
  80. 01:07:55.667                             : en:01:07:55.667
  81. 01:10:13.542                             : en:01:10:13.542
  82. 01:12:47.625                             : en:01:12:47.625
  83. 01:17:40.292                             : en:01:17:40.292
复制代码




                                       
                                       

                                       
                                       
                                       




回复

使用道具 举报

懒得打字嘛,点击右侧快捷回复 【右侧内容,后台自定义】
您需要登录后才可以回帖 登录 | 立即加入

本版积分规则

Archiver|小黑屋| 蓝光电影网 |网站地图

Copyright © 2021 Comsenz Inc. Powered by 蓝光电影网

蓝光电影网

本站内容由用户自主分享和转载自互联网,转载目的在于传递更多信息,并不代表本网赞同其观点和对其真实性负责。

如有侵权、违反国家法律政策行为,请联系我们,我们会第一时间及时清除和处理!

举报反馈邮箱:[email protected]

快速回复 返回顶部 返回列表