找回密码

蓝光电影网

查看: 19|回复: 0

[恐怖] 魔山历险 Whiskey.Mountain.1977.1080p.BluRay.x264-ORBS 9.05GB

[复制链接]
蓝光币
382
发表于 2021-2-4 20:13:59 | 显示全部楼层 |阅读模式


◎译  名 魔山历险
◎片  名 Whiskey Mountain
◎年  代 1977
◎产  地 美国
◎类  别 可骇
◎语  言 英语
◎上映日期 1977
◎IMDb评分  5.2/10 from 176 users
◎IMDb链接  https://www.imdb.com/title/tt0076914/
◎豆瓣评分 /10 from 0 users
◎豆瓣链接 https://movie.douban.com/subject/5052714/
◎片  长 USA: 95 分钟
◎导  演 威廉·格雷菲 William Grefe
◎编  剧 威廉·格雷菲 William Grefe
◎主  演 克里斯托弗·乔治 Christopher George
       普雷斯顿·皮尔斯 Preston Pierce
       罗伯塔·科林斯 Roberta Collins
       约翰·戴维斯·钱德勒 John Davis Chandler
       William Kerwin
◎标  签 美国电影 | 可骇 | 被轻忽的电影 | 惊悚
◎简  介


  暂无相关剧情先容
  1. Video
  2. ID                                       : 1
  3. Format                                   : AVC
  4. Format/Info                              : Advanced Video Codec
  5. Format profile                           : [email protected]
  6. Format settings                          : CABAC / 5 Ref Frames
  7. Format settings, CABAC                   : Yes
  8. Format settings, Reference frames        : 5 frames
  9. Codec ID                                 : V_MPEG4/ISO/AVC
  10. Duration                                 : 1 h 30 min
  11. Bit rate                                 : 13.7 Mb/s
  12. Width                                    : 1 920 pixels
  13. Height                                   : 722 pixels
  14. Display aspect ratio                     : 2.659
  15. Frame rate mode                          : Constant
  16. Frame rate                               : 23.976 (24000/1001/189150) FPS
  17. Color space                              : YUV
  18. Chroma subsampling                       : 4:2:0
  19. Bit depth                                : 8 bits
  20. Scan type                                : Progressive
  21. Bits/(Pixel*Frame)                       : 0.411
  22. Stream size                              : 8.61 GiB (95%)
  23. Writing library                          : x264 core 161 r3027 4121277
  24. Encoding settings                        : cabac=1 / ref=5 / deblock=1:-3:-3 / analyse=0x3:0x133 / me=umh / subme=10 / psy=1 / psy_rd=1.20:0.00 / mixed_ref=1 / me_range=24 / chroma_me=1 / trellis=2 / 8x8dct=1 / cqm=0 / deadzone=21,11 / fast_pskip=0 / chroma_qp_offset=-2 / threads=23 / lookahead_threads=3 / sliced_threads=0 / nr=0 / decimate=0 / interlaced=0 / bluray_compat=0 / constrained_intra=0 / bframes=8 / b_pyramid=2 / b_adapt=2 / b_bias=0 / direct=3 / weightb=1 / open_gop=0 / weightp=2 / keyint=250 / keyint_min=23 / scenecut=40 / intra_refresh=0 / rc_lookahead=60 / rc=crf / mbtree=1 / crf=20.0 / qcomp=0.60 / qpmin=0 / qpmax=69 / qpstep=4 / ip_ratio=1.40 / aq=3:0.90
  25. Default                                  : Yes
  26. Forced                                   : No
  27. Color range                              : Limited
  28. Matrix coefficients                      : BT.709

  29. Audio #1
  30. ID                                       : 2
  31. Format                                   : FLAC
  32. Format/Info                              : Free Lossless Audio Codec
  33. Codec ID                                 : A_FLAC
  34. Duration                                 : 1 h 30 min
  35. Bit rate mode                            : Variable
  36. Bit rate                                 : 598 kb/s
  37. Channel(s)                               : 1 channel
  38. Channel layout                           : C
  39. Sampling rate                            : 48.0 kHz
  40. Frame rate                               : 11.719 FPS (4096 SPF)
  41. Bit depth                                : 24 bits
  42. Compression mode                         : Lossless
  43. Stream size                              : 386 MiB (4%)
  44. Writing library                          : libFLAC 1.3.2 (UTC 2017-01-01)
  45. Language                                 : English
  46. Default                                  : Yes
  47. Forced                                   : No

  48. Audio #2
  49. ID                                       : 3
  50. Format                                   : AAC LC
  51. Format/Info                              : Advanced Audio Codec Low Complexity
  52. Codec ID                                 : A_AAC-2
  53. Duration                                 : 1 h 30 min
  54. Bit rate                                 : 96.0 kb/s
  55. Channel(s)                               : 2 channels
  56. Channel layout                           : L R
  57. Sampling rate                            : 48.0 kHz
  58. Frame rate                               : 46.875 FPS (1024 SPF)
  59. Compression mode                         : Lossy
  60. Delay relative to video                  : 20 ms
  61. Stream size                              : 61.6 MiB (1%)
  62. Title                                    : Commentary
  63. Language                                 : English
  64. Default                                  : No
  65. Forced                                   : No

  66. Text
  67. ID                                       : 4
  68. Format                                   : PGS
  69. Muxing mode                              : zlib
  70. Codec ID                                 : S_HDMV/PGS
  71. Codec ID/Info                            : Picture based subtitle format used on BDs/HD-DVDs
  72. Duration                                 : 1 h 29 min
  73. Bit rate                                 : 20.3 kb/s
  74. Count of elements                        : 1494
  75. Stream size                              : 13.1 MiB (0%)
  76. Title                                    : SDH
  77. Language                                 : English
  78. Default                                  : No
  79. Forced                                   : No

  80. Menu
  81. 00:00:00.000                             : en:Chapter 01
  82. 00:07:58.812                             : en:Chapter 02
  83. 00:14:47.095                             : en:Chapter 03
  84. 00:22:03.697                             : en:Chapter 04
  85. 00:29:21.677                             : en:Chapter 05
  86. 00:39:03.299                             : en:Chapter 06
  87. 00:45:36.609                             : en:Chapter 07
  88. 00:53:40.843                             : en:Chapter 08
  89. 00:59:22.684                             : en:Chapter 09
  90. 01:05:14.369                             : en:Chapter 10
  91. 01:13:49.050                             : en:Chapter 11
  92. 01:20:47.301                             : en:Chapter 12
复制代码




                                       
                                       

                                       
                                       
                                       




回复

使用道具 举报

懒得打字嘛,点击右侧快捷回复 【右侧内容,后台自定义】
您需要登录后才可以回帖 登录 | 立即加入

本版积分规则

Archiver|小黑屋| 蓝光电影网 |网站地图

Copyright © 2021 Comsenz Inc. Powered by 蓝光电影网

蓝光电影网

本站内容由用户自主分享和转载自互联网,转载目的在于传递更多信息,并不代表本网赞同其观点和对其真实性负责。

如有侵权、违反国家法律政策行为,请联系我们,我们会第一时间及时清除和处理!

举报反馈邮箱:[email protected]

快速回复 返回顶部 返回列表