找回密码

蓝光电影网

查看: 10|回复: 0

[喜剧] 方托马斯的反击 Fantomas.Strikes.Back.1965.1080p.BluRay.x264-USURY 7.95GB

[复制链接]
蓝光币
386
发表于 2020-8-17 10:20:33 | 显示全部楼层 |阅读模式


◎译  名 方托马斯的还击 / Fantomas Strikes Back / The Vengeance of Fantomas
◎片  名 Fant?mas se décha?ne
◎年  代 1965
◎产  地 法国 / 意大利
◎类  别 笑剧 / 犯罪 / 奇异 / 冒险
◎语  言 法语
◎上映日期 1965-12-08
◎IMDb评分  6.9/10 from 6172 users
◎IMDb链接  https://www.imdb.com/title/tt0059168
◎豆瓣评分 7.5/10 from 1436 users
◎豆瓣链接 https://movie.douban.com/subject/1902700/
◎片  长 94 分钟
◎导  演 André Hunebelle
◎编  剧 Jean Halain / Pierre Foucaud
◎主  演 Louis de Funès
       Jean Marais
       Mylène Demongeot
       Jacques Dynam
       Robert Dalban

◎标  签 笑剧 | 法国 | 路易德菲奈斯 | 法国电影 | 科幻 | 1965 | 犯罪 | 方托马斯
◎简  介

  
  从小,方托马斯(让?马莱 Jean Marais 饰)就爱搞恶作剧。不外,死对头瑞夫警长(路易?德?菲耐斯 Louis de Funès 饰)一向希望抓他归案。为了给后者一个下马威,方托马斯绑架了科学家马尔尚。记者方尔多和未婚妻艾莱娜报道了此事。罗马科学大会行将召开,为了避免方托马斯前来拆台,瑞夫警长率领手下起头了声势浩荡的搜捕行动。在列车上,方托马斯依靠出众的易容术,不单躲过了这些清查自己的线人,而且还嘲谑了瑞夫警长。科学大会如期召开,记者方多尔以为方托马斯此次前来是为勒菲夫教授而来,由于后者跟马尔尚可以配合完成奥秘兵器的研制,因而方多尔也扮作勒菲夫,勾引方托马斯中计,但没成想,他们都中了方托马斯的计入彀……
  本片按照法国作家皮埃尔?苏维德和马塞尔?阿兰的小说改编,为方托马斯“三部曲”中的第二部。本片是笑剧大师路易?德?菲耐斯继《虎口脱险》的又一力作。
  1. Video
  2. ID                                       : 1
  3. Format                                   : AVC
  4. Format/Info                              : Advanced Video Codec
  5. Format profile                           : [email protected]
  6. Format settings                          : CABAC / 5 Ref Frames
  7. Format settings, CABAC                   : Yes
  8. Format settings, Reference frames        : 5 frames
  9. Codec ID                                 : V_MPEG4/ISO/AVC
  10. Duration                                 : 1 h 38 min
  11. Bit rate                                 : 10.7 Mb/s
  12. Width                                    : 1 920 pixels
  13. Height                                   : 824 pixels
  14. Display aspect ratio                     : 2.35:1
  15. Frame rate mode                          : Constant
  16. Frame rate                               : 24.000 FPS
  17. Color space                              : YUV
  18. Chroma subsampling                       : 4:2:0
  19. Bit depth                                : 8 bits
  20. Scan type                                : Progressive
  21. Bits/(Pixel*Frame)                       : 0.283
  22. Stream size                              : 7.41 GiB (93%)
  23. Writing library                          : x264 core 150 r2829 d1fe6fd
  24. Encoding settings                        : cabac=1 / ref=5 / deblock=1:-3:-3 / analyse=0x3:0x133 / me=umh / subme=9 / psy=1 / psy_rd=1.00:0.00 / mixed_ref=1 / me_range=16 / chroma_me=1 / trellis=2 / 8x8dct=1 / cqm=0 / deadzone=21,11 / fast_pskip=0 / chroma_qp_offset=-2 / threads=26 / lookahead_threads=2 / sliced_threads=0 / nr=0 / decimate=1 / interlaced=0 / bluray_compat=0 / constrained_intra=0 / bframes=3 / b_pyramid=2 / b_adapt=1 / b_bias=0 / direct=3 / weightb=1 / open_gop=0 / weightp=2 / keyint=250 / keyint_min=24 / scenecut=40 / intra_refresh=0 / rc_lookahead=50 / rc=2pass / mbtree=1 / bitrate=10740 / ratetol=1.0 / qcomp=0.60 / qpmin=0 / qpmax=69 / qpstep=4 / cplxblur=20.0 / qblur=0.5 / ip_ratio=1.40 / aq=1:1.00
  25. Language                                 : English
  26. Default                                  : Yes
  27. Forced                                   : No

  28. Audio
  29. ID                                       : 2
  30. Format                                   : DTS
  31. Format/Info                              : Digital Theater Systems
  32. Codec ID                                 : A_DTS
  33. Duration                                 : 1 h 38 min
  34. Bit rate mode                            : Constant
  35. Bit rate                                 : 768 kb/s
  36. Channel(s)                               : 2 channels
  37. Channel layout                           : L R
  38. Sampling rate                            : 48.0 kHz
  39. Frame rate                               : 93.750 FPS (512 SPF)
  40. Bit depth                                : 24 bits
  41. Compression mode                         : Lossy
  42. Stream size                              : 543 MiB (7%)
  43. Language                                 : French
  44. Default                                  : Yes
  45. Forced                                   : No

  46. Text
  47. ID                                       : 3
  48. Format                                   : UTF-8
  49. Codec ID                                 : S_TEXT/UTF8
  50. Codec ID/Info                            : UTF-8 Plain Text
  51. Duration                                 : 1 h 38 min
  52. Bit rate                                 : 33 b/s
  53. Count of elements                        : 831
  54. Stream size                              : 23.9 KiB (0%)
  55. Title                                    : forced
  56. Language                                 : English
  57. Default                                  : Yes
  58. Forced                                   : Yes

  59. Menu
  60. 00:00:00.000                             : en:00:00:00.000
  61. 00:07:28.250                             : en:00:07:28.250
  62. 00:15:50.250                             : en:00:15:50.250
  63. 00:23:42.958                             : en:00:23:42.958
  64. 00:31:02.417                             : en:00:31:02.417
  65. 00:39:36.792                             : en:00:39:36.792
  66. 00:46:56.125                             : en:00:46:56.125
  67. 00:55:39.458                             : en:00:55:39.458
  68. 01:03:25.708                             : en:01:03:25.708
  69. 01:11:32.417                             : en:01:11:32.417
  70. 01:20:25.875                             : en:01:20:25.875
  71. 01:27:38.375                             : en:01:27:38.375
复制代码




                                       
                                       

                                       
                                       
                                       




回复

使用道具 举报

懒得打字嘛,点击右侧快捷回复 【右侧内容,后台自定义】
您需要登录后才可以回帖 登录 | 立即加入

本版积分规则

Archiver|小黑屋| 蓝光电影网 |网站地图

Copyright © 2021 Comsenz Inc. Powered by 蓝光电影网

蓝光电影网

本站内容由用户自主分享和转载自互联网,转载目的在于传递更多信息,并不代表本网赞同其观点和对其真实性负责。

如有侵权、违反国家法律政策行为,请联系我们,我们会第一时间及时清除和处理!

举报反馈邮箱:[email protected]

快速回复 返回顶部 返回列表