找回密码

蓝光电影网

查看: 10|回复: 0

[科幻] 杰森在太空/太凶杀人狂 Jason.X.2001.SHOUT.PROPER.1080p.BluRay.x264.DTS-FGT 8.33GB

[复制链接]
蓝光币
382
发表于 2021-1-6 09:34:57 | 显示全部楼层 |阅读模式
[img][/img]

◎译  名 杰森在太空/太凶杀人狂/星际公敌/未来杀手
◎片  名 Jason X
◎年  代 2001
◎产  地 美国
◎类  别 科幻 / 可骇
◎语  言 英语
◎上映日期 2001-11-09
◎IMDb评分  4.4/10 from 50587 users
◎IMDb链接  https://www.imdb.com/title/tt0211443/
◎豆瓣评分 5.9/10 from 2305 users
◎豆瓣链接 https://movie.douban.com/subject/1303672/
◎片  长 91 分钟
◎导  演 詹姆斯·艾萨克 James Isaac
◎编  剧 维克多·米勒 Victor Miller
◎主  演 莱克莎·多伊格 Lexa Doig
       Lisa Ryder
       查克·坎贝尔 Chuck Campbell
       彼得·门萨 Peter Mensah
       德尔文·乔丹 Derwin Jordan
       梅洛迪·约翰逊 Melody Johnson
       雅尼·吉尔曼 Yani Gellman
       多夫·蒂芬巴奇 Dov Tiefenbach
       詹姆斯·艾萨克 James Isaac
       凯恩·霍德尔 Kane Hodder
       大卫·柯南伯格 David Cronenberg
       克里斯汀安格斯 Kristi Angus
       阿曼达·布鲁盖尔 Amanda Brugel
       杰夫·格迪斯 Jeff Geddis
       Robert A. Silverman
       博伊德·班克斯 Boyd Banks
◎标  签 可骇 | 科幻 | 美国 | 惊悚 | 血腥 | 2001 | 美国电影 | Jason_Series
◎简  介


  2000年,杀不死的杰森被关在水晶湖研讨中心,政府为了借杰森研讨坏死构造规复试图将其转移,但是交接时辰杰森再次大开杀戒,危机关头研讨员萝文(莱克莎·多伊格 Lexa Doig 饰)把杰森和自己一路封冻。455年后,地球早已不合适人类保存,一支人类科考队返回地球停止考古研讨,他们发现了萝文与杰森的尸身,博士卢威(乔纳森·鲍茨 Jonathan Potts 饰)与门生们把尸身带回运输船高刚号,并利用高科技令萝文新生。作为著名杀人狂,杰森尸身的贸易代价令卢威心动,岂料杰森在太空船中再次新生并大开杀戒,杰森杀不死的体质连系400年后的科技手段令他的可骇指数再度上升……
  1. Video
  2. ID                                       : 1
  3. Format                                   : AVC
  4. Format/Info                              : Advanced Video Codec
  5. Format profile                           : [email protected]
  6. Format settings                          : CABAC / 4 Ref Frames
  7. Format settings, CABAC                   : Yes
  8. Format settings, Reference frames        : 4 frames
  9. Codec ID                                 : V_MPEG4/ISO/AVC
  10. Duration                                 : 1 h 31 min
  11. Bit rate                                 : 11.5 Mb/s
  12. Width                                    : 1 920 pixels
  13. Height                                   : 1 036 pixels
  14. Display aspect ratio                     : 1.85:1
  15. Frame rate mode                          : Constant
  16. Frame rate                               : 24.000 FPS
  17. Color space                              : YUV
  18. Chroma subsampling                       : 4:2:0
  19. Bit depth                                : 8 bits
  20. Scan type                                : Progressive
  21. Bits/(Pixel*Frame)                       : 0.241
  22. Stream size                              : 7.36 GiB (88%)
  23. Writing library                          : x264 core 148 r2748 97eaef2
  24. Encoding settings                        : cabac=1 / ref=4 / deblock=1:-2:-2 / analyse=0x3:0x113 / me=umh / subme=9 / psy=1 / psy_rd=1.00:0.15 / mixed_ref=1 / me_range=16 / chroma_me=1 / trellis=2 / 8x8dct=1 / cqm=0 / deadzone=21,11 / fast_pskip=1 / chroma_qp_offset=-3 / threads=24 / lookahead_threads=3 / sliced_threads=0 / nr=0 / decimate=1 / interlaced=0 / bluray_compat=0 / constrained_intra=0 / bframes=3 / b_pyramid=2 / b_adapt=1 / b_bias=0 / direct=3 / weightb=1 / open_gop=0 / weightp=2 / keyint=250 / keyint_min=25 / scenecut=40 / intra_refresh=0 / rc_lookahead=50 / rc=2pass / mbtree=1 / bitrate=11500 / ratetol=1.0 / qcomp=0.60 / qpmin=0 / qpmax=69 / qpstep=4 / cplxblur=20.0 / qblur=0.5 / vbv_maxrate=31250 / vbv_bufsize=31250 / nal_hrd=none / filler=0 / ip_ratio=1.40 / aq=1:1.00
  25. Language                                 : English
  26. Default                                  : Yes
  27. Forced                                   : No
  28. Audio
  29. ID                                       : 2
  30. Format                                   : DTS
  31. Format/Info                              : Digital Theater Systems
  32. Codec ID                                 : A_DTS
  33. Duration                                 : 1 h 31 min
  34. Bit rate mode                            : Constant
  35. Bit rate                                 : 1 509 kb/s
  36. Channel(s)                               : 6 channels
  37. Channel layout                           : C L R Ls Rs LFE
  38. Sampling rate                            : 48.0 kHz
  39. Frame rate                               : 93.750 FPS (512 SPF)
  40. Bit depth                                : 24 bits
  41. Compression mode                         : Lossy
  42. Stream size                              : 990 MiB (12%)
  43. Title                                    : DTS 5.1
  44. Language                                 : English
  45. Default                                  : Yes
  46. Forced                                   : No
  47. Text
  48. ID                                       : 3
  49. Format                                   : UTF-8
  50. Codec ID                                 : S_TEXT/UTF8
  51. Codec ID/Info                            : UTF-8 Plain Text
  52. Duration                                 : 1 h 24 min
  53. Bit rate                                 : 40 b/s
  54. Count of elements                        : 1098
  55. Stream size                              : 24.9 KiB (0%)
  56. Title                                    : English-SRT
  57. Language                                 : English
  58. Default                                  : Yes
  59. Forced                                   : No
  60. Menu
  61. 00:00:00.000                             : en:Chapter 01
  62. 00:09:37.708                             : en:Chapter 02
  63. 00:16:28.375                             : en:Chapter 03
  64. 00:23:23.000                             : en:Chapter 04
  65. 00:31:08.958                             : en:Chapter 05
  66. 00:38:50.541                             : en:Chapter 06
  67. 00:45:21.333                             : en:Chapter 07
  68. 00:51:38.750                             : en:Chapter 08
  69. 00:58:46.416                             : en:Chapter 09
  70. 01:08:46.500                             : en:Chapter 10
  71. 01:15:17.083                             : en:Chapter 11
  72. 01:21:23.583                             : en:Chapter 12
复制代码



                                       
                                       

                                       
                                       
                                       




回复

使用道具 举报

懒得打字嘛,点击右侧快捷回复 【右侧内容,后台自定义】
您需要登录后才可以回帖 登录 | 立即加入

本版积分规则

Archiver|小黑屋| 蓝光电影网 |网站地图

Copyright © 2021 Comsenz Inc. Powered by 蓝光电影网

蓝光电影网

本站内容由用户自主分享和转载自互联网,转载目的在于传递更多信息,并不代表本网赞同其观点和对其真实性负责。

如有侵权、违反国家法律政策行为,请联系我们,我们会第一时间及时清除和处理!

举报反馈邮箱:[email protected]

快速回复 返回顶部 返回列表