找回密码

蓝光电影网

查看: 24|回复: 0

[爱情] 新吸血僵尸/德古拉 Dracula.1979.THEATRICAL.1080p.BluRay.X264-AMIABLE 11.05GB

[复制链接]
蓝光币
386
发表于 2020-10-19 08:46:30 | 显示全部楼层 |阅读模式


◎译  名 新吸血僵尸/德古拉
◎片  名 Dracula
◎年  代 1979
◎产  地 美国,英国
◎类  别 恋爱 / 可骇
◎语  言 英语,荷兰语,罗马尼亚语
◎上映日期 1979-07-20
◎IMDb评分  6.5/10 from 8949 users
◎IMDb链接  https://www.imdb.com/title/tt0079073/
◎豆瓣评分 6.6/10 from 254 users
◎豆瓣链接 https://movie.douban.com/subject/1292645/
◎片  长 109 分钟
◎导  演 约翰·班德汉姆 John Badham
◎编  剧 布莱姆·斯托克 Bram Stoker / 约翰·L·鲍尔德斯顿 John L. Balderston
◎主  演 弗兰克·兰格拉 Frank Langella
       劳伦斯·奥利弗 Laurence Olivier
       唐纳德·普利森斯 Donald Pleasence
◎标  签 吸血鬼 | 美国 | 可骇 | 哥特 | 1979 | 恋爱 | 魔幻 | Vampires
◎简  介


  在众多的“吸血鬼"电影版本中,由约翰.巴德姆执导的本片著名度较低,但男配角法兰克.兰吉拉成功地缔造了一个气质崇高的名流型吸血鬼形象。报告嗜血的卓古拉伯爵分开他的古堡,跑到现代的伦敦都会去追随新的猎物,因此履历到很多风趣的遭受。论编导上的表示本片只算中规中矩,但搭配表演的资深演员劳伦斯.奥利弗和唐纳德.普莱森斯都较有看头。
  1. Video
  2. ID                                       : 1
  3. Format                                   : AVC
  4. Format/Info                              : Advanced Video Codec
  5. Format profile                           : [email protected]
  6. Format settings                          : CABAC / 5 Ref Frames
  7. Format settings, CABAC                   : Yes
  8. Format settings, Reference frames        : 5 frames
  9. Codec ID                                 : V_MPEG4/ISO/AVC
  10. Duration                                 : 1 h 49 min
  11. Bit rate                                 : 12.8 Mb/s
  12. Width                                    : 1 920 pixels
  13. Height                                   : 800 pixels
  14. Display aspect ratio                     : 2.40:1
  15. Frame rate mode                          : Constant
  16. Frame rate                               : 23.976 (24000/1001/189150) FPS
  17. Color space                              : YUV
  18. Chroma subsampling                       : 4:2:0
  19. Bit depth                                : 8 bits
  20. Scan type                                : Progressive
  21. Bits/(Pixel*Frame)                       : 0.347
  22. Stream size                              : 9.56 GiB (87%)
  23. Writing library                          : x264 core 159 r2991 1771b55
  24. Encoding settings                        : cabac=1 / ref=5 / deblock=1:-3:-3 / analyse=0x3:0x133 / me=umh / subme=10 / psy=1 / psy_rd=1.10:0.00 / mixed_ref=1 / me_range=32 / chroma_me=1 / trellis=2 / 8x8dct=1 / cqm=0 / deadzone=21,11 / fast_pskip=0 / chroma_qp_offset=-2 / threads=25 / lookahead_threads=6 / sliced_threads=0 / nr=0 / decimate=0 / interlaced=0 / bluray_compat=0 / constrained_intra=0 / bframes=10 / b_pyramid=2 / b_adapt=2 / b_bias=0 / direct=3 / weightb=1 / open_gop=0 / weightp=2 / keyint=240 / keyint_min=24 / scenecut=40 / intra_refresh=0 / rc_lookahead=60 / rc=2pass / mbtree=1 / bitrate=12797 / ratetol=1.0 / qcomp=0.60 / qpmin=0 / qpmax=69 / qpstep=4 / cplxblur=20.0 / qblur=0.5 / ip_ratio=1.30 / aq=3:0.70
  25. Default                                  : Yes
  26. Forced                                   : No
  27. Statistics Tags Issue                    : no_variable_data 1970-01-01 00:00:00 / no_variable_data 2010-02-22 21:41:29
  28. FromStats_BitRate                        : 12798986
  29. FromStats_Duration                       : 01:49:23.599000000
  30. FromStats_FrameCount                     : 157369
  31. FromStats_StreamSize                     : 10500926484

  32. Audio
  33. ID                                       : 2
  34. Format                                   : DTS
  35. Format/Info                              : Digital Theater Systems
  36. Codec ID                                 : A_DTS
  37. Duration                                 : 1 h 49 min
  38. Bit rate mode                            : Constant
  39. Bit rate                                 : 1 509 kb/s
  40. Channel(s)                               : 2 channels
  41. Channel layout                           : L R
  42. Sampling rate                            : 48.0 kHz
  43. Frame rate                               : 93.750 FPS (512 SPF)
  44. Bit depth                                : 24 bits
  45. Compression mode                         : Lossy
  46. Stream size                              : 1.15 GiB (11%)
  47. Language                                 : English
  48. Default                                  : Yes
  49. Forced                                   : No
  50. Statistics Tags Issue                    : no_variable_data 1970-01-01 00:00:00 / no_variable_data 2010-02-22 21:41:29
  51. FromStats_BitRate                        : 1508999
  52. FromStats_Duration                       : 01:49:24.022000000
  53. FromStats_FrameCount                     : 615377
  54. FromStats_StreamSize                     : 1238138524

  55. Text #1
  56. ID                                       : 3
  57. Format                                   : UTF-8
  58. Codec ID                                 : S_TEXT/UTF8
  59. Codec ID/Info                            : UTF-8 Plain Text
  60. Language                                 : English
  61. Default                                  : No
  62. Forced                                   : No
  63. Statistics Tags Issue                    : no_variable_data 1970-01-01 00:00:00 / no_variable_data 2010-02-22 21:41:29
  64. FromStats_BitRate                        : 42
  65. FromStats_Duration                       : 01:40:42.703000000
  66. FromStats_FrameCount                     : 1231
  67. FromStats_StreamSize                     : 32064

  68. Text #2
  69. ID                                       : 4
  70. Format                                   : UTF-8
  71. Codec ID                                 : S_TEXT/UTF8
  72. Codec ID/Info                            : UTF-8 Plain Text
  73. Title                                    : SDH
  74. Language                                 : English
  75. Default                                  : No
  76. Forced                                   : No
  77. Statistics Tags Issue                    : no_variable_data 1970-01-01 00:00:00 / no_variable_data 2010-02-22 21:41:29
  78. FromStats_BitRate                        : 55
  79. FromStats_Duration                       : 01:46:02.398000000
  80. FromStats_FrameCount                     : 1719
  81. FromStats_StreamSize                     : 44085

  82. Menu
  83. 00:00:00.000                             : en:Chapter 01
  84. 00:10:05.980                             : en:Chapter 02
  85. 00:24:10.032                             : en:Chapter 03
  86. 00:32:35.245                             : en:Chapter 04
  87. 00:41:16.432                             : en:Chapter 05
  88. 00:50:16.096                             : en:Chapter 06
  89. 00:59:27.773                             : en:Chapter 07
  90. 01:08:06.582                             : en:Chapter 08
  91. 01:16:38.969                             : en:Chapter 09
  92. 01:25:07.519                             : en:Chapter 10
  93. 01:35:05.992                             : en:Chapter 11
  94. 01:40:33.277                             : en:Chapter 12
复制代码



                                       
                                       

                                       
                                       
                                       




回复

使用道具 举报

懒得打字嘛,点击右侧快捷回复 【右侧内容,后台自定义】
您需要登录后才可以回帖 登录 | 立即加入

本版积分规则

Archiver|小黑屋| 蓝光电影网 |网站地图

Copyright © 2021 Comsenz Inc. Powered by 蓝光电影网

蓝光电影网

本站内容由用户自主分享和转载自互联网,转载目的在于传递更多信息,并不代表本网赞同其观点和对其真实性负责。

如有侵权、违反国家法律政策行为,请联系我们,我们会第一时间及时清除和处理!

举报反馈邮箱:[email protected]

快速回复 返回顶部 返回列表