找回密码

蓝光电影网

查看: 4|回复: 0

[科幻] 草稿 A.Rough.Draft.2018.RUSSIAN.1080p.BluRay.x264-EDPH 13.85GB

[复制链接]
蓝光币
382
发表于 2020-12-24 09:19:20 | 显示全部楼层 |阅读模式
[img][/img]

◎译  名 草稿/Chernovik/Rough Draft/The Draft/创世草案
◎片  名 Черновик
◎年  代 2018
◎产  地 俄罗斯
◎类  别 科幻
◎语  言 俄语 Russian
◎上映日期 2018-05-25(俄罗斯)
◎IMDb评分  4.4/10 from 1439 users
◎IMDb链接  https://www.imdb.com/title/tt6270596/
◎豆瓣评分 5.7/10 from 535 users
◎豆瓣链接 https://movie.douban.com/subject/27202822/
◎片  长 112分钟
◎导  演 谢尔盖·马克利斯基 Sergey Mokritskiy
◎编  剧 丹尼斯·库雷舍夫 Denis Kuryshev / 谢尔盖·马克利斯基 Sergey Mokritskiy / Sergey Lukyanenko
◎主  演 斯维里娅·雅努索斯凯伊特 Severija Janusauskaite
       尤利娅·别列希尔德 Yuliya Peresild
       安德烈·梅尔兹利金 Andrey Merzlikin
◎标  签 科幻 | 俄罗斯 | 奇异 | 俄国电影 | 2018 | 黑色诙谐 | 俄罗斯电影 | 电影
◎简  介


  天赋法式员基里尔为公司完成重要项目,成功为公司建造出虚拟的天下。但就在他预备收获名誉与金钱时,现实天下却忽然脸孔全非。面临陌生的一切,他必须找到法子回到自己所熟知的现实当中。
  1. Video
  2. ID                                       : 1
  3. Format                                   : AVC
  4. Format/Info                              : Advanced Video Codec
  5. Format profile                           : [email protected]
  6. Format settings                          : CABAC / 5 Ref Frames
  7. Format settings, CABAC                   : Yes
  8. Format settings, Reference frames        : 5 frames
  9. Codec ID                                 : V_MPEG4/ISO/AVC
  10. Duration                                 : 1 h 55 min
  11. Bit rate                                 : 16.5 Mb/s
  12. Width                                    : 1 920 pixels
  13. Height                                   : 804 pixels
  14. Display aspect ratio                     : 2.40:1
  15. Frame rate mode                          : Constant
  16. Frame rate                               : 24.000 FPS
  17. Color space                              : YUV
  18. Chroma subsampling                       : 4:2:0
  19. Bit depth                                : 8 bits
  20. Scan type                                : Progressive
  21. Bits/(Pixel*Frame)                       : 0.446
  22. Stream size                              : 13.3 GiB (96%)
  23. Writing library                          : x264 core 160 r3009 4c9b076
  24. Encoding settings                        : cabac=1 / ref=5 / deblock=1:-3:-3 / analyse=0x3:0x133 / me=umh / subme=11 / psy=1 / psy_rd=1.02:0.00 / mixed_ref=1 / me_range=32 / chroma_me=1 / trellis=2 / 8x8dct=1 / cqm=0 / deadzone=21,11 / fast_pskip=0 / chroma_qp_offset=-2 / threads=12 / lookahead_threads=3 / sliced_threads=0 / nr=0 / decimate=0 / interlaced=0 / bluray_compat=0 / constrained_intra=0 / bframes=16 / b_pyramid=2 / b_adapt=2 / b_bias=0 / direct=3 / weightb=1 / open_gop=0 / weightp=2 / keyint=250 / keyint_min=24 / scenecut=40 / intra_refresh=0 / rc_lookahead=250 / rc=crf / mbtree=0 / crf=17.1 / qcomp=0.65 / qpmin=0 / qpmax=69 / qpstep=4 / vbv_maxrate=62500 / vbv_bufsize=78125 / crf_max=0.0 / nal_hrd=none / filler=0 / ip_ratio=1.30 / pb_ratio=1.20 / aq=3:0.80
  25. Default                                  : No
  26. Forced                                   : No
  27. Color range                              : Limited
  28. Color primaries                          : BT.709
  29. Matrix coefficients                      : BT.709
  30. Audio
  31. ID                                       : 2
  32. Format                                   : AC-3
  33. Format/Info                              : Audio Coding 3
  34. Commercial name                          : Dolby Digital
  35. Codec ID                                 : A_AC3
  36. Duration                                 : 1 h 55 min
  37. Bit rate mode                            : Constant
  38. Bit rate                                 : 640 kb/s
  39. Channel(s)                               : 6 channels
  40. Channel layout                           : L R C LFE Ls Rs
  41. Sampling rate                            : 48.0 kHz
  42. Frame rate                               : 31.250 FPS (1536 SPF)
  43. Compression mode                         : Lossy
  44. Stream size                              : 529 MiB (4%)
  45. Language                                 : Russian
  46. Service kind                             : Complete Main
  47. Default                                  : No
  48. Forced                                   : No
  49. Text
  50. ID                                       : 3
  51. Format                                   : UTF-8
  52. Codec ID                                 : S_TEXT/UTF8
  53. Codec ID/Info                            : UTF-8 Plain Text
  54. Duration                                 : 1 h 51 min
  55. Bit rate                                 : 42 b/s
  56. Count of elements                        : 1561
  57. Stream size                              : 34.8 KiB (0%)
  58. Language                                 : English
  59. Default                                  : Yes
  60. Forced                                   : No
  61. Menu
  62. 00:00:00.000                             : en:Chapter 01
  63. 00:02:40.291                             : en:Chapter 02
  64. 00:05:48.375                             : en:Chapter 03
  65. 00:10:01.333                             : en:Chapter 04
  66. 00:13:08.041                             : en:Chapter 05
  67. 00:19:07.000                             : en:Chapter 06
  68. 00:22:56.333                             : en:Chapter 07
  69. 00:29:18.625                             : en:Chapter 08
  70. 00:36:24.583                             : en:Chapter 09
  71. 00:41:59.583                             : en:Chapter 10
  72. 00:46:21.208                             : en:Chapter 11
  73. 00:52:56.291                             : en:Chapter 12
  74. 01:00:12.416                             : en:Chapter 13
  75. 01:03:48.333                             : en:Chapter 14
  76. 01:12:32.458                             : en:Chapter 15
  77. 01:18:14.583                             : en:Chapter 16
  78. 01:21:37.291                             : en:Chapter 17
  79. 01:25:17.125                             : en:Chapter 18
  80. 01:28:57.083                             : en:Chapter 19
  81. 01:32:48.208                             : en:Chapter 20
  82. 01:37:04.000                             : en:Chapter 21
  83. 01:44:50.333                             : en:Chapter 22
  84. 01:47:57.250                             : en:Chapter 23
  85. 01:50:27.958                             : en:Chapter 24
复制代码



                                       
                                       

                                       
                                       
                                       




回复

使用道具 举报

懒得打字嘛,点击右侧快捷回复 【右侧内容,后台自定义】
您需要登录后才可以回帖 登录 | 立即加入

本版积分规则

Archiver|小黑屋| 蓝光电影网 |网站地图

Copyright © 2021 Comsenz Inc. Powered by 蓝光电影网

蓝光电影网

本站内容由用户自主分享和转载自互联网,转载目的在于传递更多信息,并不代表本网赞同其观点和对其真实性负责。

如有侵权、违反国家法律政策行为,请联系我们,我们会第一时间及时清除和处理!

举报反馈邮箱:[email protected]

快速回复 返回顶部 返回列表