找回密码

蓝光电影网

查看: 9|回复: 0

[恐怖] 第七幻象2:重返阴阳界/猛鬼再反攻 Sometimes.They.Come.Back.Again.1996.1080p.BluRay.x264.FLAC.2.0-HANDJOB 8.08GB

[复制链接]
蓝光币
382
发表于 2021-2-4 09:34:02 | 显示全部楼层 |阅读模式


◎译  名 第七幻象2:重返阴阳界/猛鬼再反扑
◎片  名 Sometimes They Come Back... Again
◎年  代 1996
◎产  地 美国
◎类  别 可骇 / 奇异
◎语  言 英语
◎上映日期 1996-11-01
◎IMDb评分  4.2/10 from 3227 users
◎IMDb链接  https://www.imdb.com/title/tt0117692/
◎豆瓣评分 5.4/10 from 54 users
◎豆瓣链接 https://movie.douban.com/subject/1306327/
◎片  长 98 分钟
◎编  剧 斯蒂芬·金 Stephen King / Guy Riedel
◎主  演 迈克尔·格罗斯 Michael Gross
       亚历克西斯·阿奎特 Alexis Arquette
       希拉里·斯万克 Hilary Swank
       Ingrid Sthare
       威廉姆·摩根·谢泼德 William Morgan Sheppard
       帕特里克·瑞纳 Patrick Renna
       莫莉·哈根 Molly Hagan
       Gabriel Dell Jr.
       珍妮佛·艾莉丝·考克斯 Jennifer Elise Cox
       Glen Beaudin
       珍妮弗·阿斯彭 Jennifer Aspen
◎标  签 可骇 | 斯蒂芬·金 | 美国 | Stephen_King | 美国电影 | 第七幻象2-重返阴阳界 | 烂到爆 | 史蒂芬.金
◎简  介


  强波特是位心理医生,因母亲意外过世,波特带著十八岁的女儿回籍处置后事,波特见到暌别三十年的陈旧故乡,忆起儿时的可骇气象,他小时辰曾目击姊姊在怪异的祭典仪式中被杀,这些年来他不竭回避梦靥般的回忆,当他走进他姊姊生前的房间,他的噩梦又重回眼前,老神父亚契警告他活人魔之说,提醒他怙恃与妻子古怪灭亡之疑,要他挺身完全处理恶魔,但波特身为心理医生不愿采信怪力乱神之说,直到恶魔的方针锁定在他十八岁的女儿身上,活人魔以十八岁女孩献祭,将可获得无尚魔法,昔时波特打断了活人魔献祭的仪式,现在恶魔缠上与他相依为命的女儿,他要若何跟活人魔斗法?老神父病笃时告诉他的“不看恶魔.不听恶魔.不说恶魔”又该怎样做?他逃的出三十年前缠上他的梦靥吗?.....
  1. Video
  2. ID                                       : 1
  3. Format                                   : AVC
  4. Format/Info                              : Advanced Video Codec
  5. Format profile                           : [email protected]
  6. Format settings                          : CABAC / 4 Ref Frames
  7. Format settings, CABAC                   : Yes
  8. Format settings, Reference frames        : 4 frames
  9. Codec ID                                 : V_MPEG4/ISO/AVC
  10. Duration                                 : 1 h 38 min
  11. Bit rate                                 : 11.1 Mb/s
  12. Width                                    : 1 912 pixels
  13. Height                                   : 1 080 pixels
  14. Display aspect ratio                     : 16:9
  15. Frame rate mode                          : Constant
  16. Frame rate                               : 23.976 (24000/1001/189150) FPS
  17. Color space                              : YUV
  18. Chroma subsampling                       : 4:2:0
  19. Bit depth                                : 8 bits
  20. Scan type                                : Progressive
  21. Bits/(Pixel*Frame)                       : 0.224
  22. Stream size                              : 7.64 GiB (95%)
  23. Writing library                          : x264 core 157 r2935 545de2f
  24. Encoding settings                        : cabac=1 / ref=4 / deblock=1:-3:-3 / analyse=0x3:0x133 / me=umh / subme=11 / psy=1 / psy_rd=1.00:0.00 / mixed_ref=1 / me_range=32 / chroma_me=1 / trellis=2 / 8x8dct=1 / cqm=0 / deadzone=21,11 / fast_pskip=0 / chroma_qp_offset=-2 / threads=6 / lookahead_threads=1 / sliced_threads=0 / nr=0 / decimate=0 / interlaced=0 / bluray_compat=0 / constrained_intra=0 / bframes=16 / b_pyramid=2 / b_adapt=2 / b_bias=0 / direct=3 / weightb=1 / open_gop=0 / weightp=2 / keyint=240 / keyint_min=24 / scenecut=40 / intra_refresh=0 / rc_lookahead=60 / rc=crf / mbtree=0 / crf=18.8 / qcomp=0.60 / qpmin=0 / qpmax=69 / qpstep=4 / vbv_maxrate=62500 / vbv_bufsize=78125 / crf_max=0.0 / nal_hrd=none / filler=0 / ip_ratio=1.30 / pb_ratio=1.20 / aq=1:0.90
  25. Default                                  : Yes
  26. Forced                                   : No
  27. Color range                              : Limited
  28. Color primaries                          : BT.709
  29. Transfer characteristics                 : BT.709
  30. Matrix coefficients                      : BT.709
  31. Audio
  32. ID                                       : 2
  33. Format                                   : FLAC
  34. Format/Info                              : Free Lossless Audio Codec
  35. Codec ID                                 : A_FLAC
  36. Duration                                 : 1 h 38 min
  37. Bit rate mode                            : Variable
  38. Bit rate                                 : 632 kb/s
  39. Channel(s)                               : 2 channels
  40. Channel layout                           : L R
  41. Sampling rate                            : 48.0 kHz
  42. Frame rate                               : 10.417 FPS (4608 SPF)
  43. Bit depth                                : 16 bits
  44. Compression mode                         : Lossless
  45. Stream size                              : 445 MiB (5%)
  46. Writing library                          : MakeMKV v1.15.4 win(x64-release)
  47. Language                                 : English
  48. Default                                  : Yes
  49. Forced                                   : No
  50. Text #1
  51. ID                                       : 3
  52. Format                                   : UTF-8
  53. Codec ID                                 : S_TEXT/UTF8
  54. Codec ID/Info                            : UTF-8 Plain Text
  55. Duration                                 : 1 h 35 min
  56. Bit rate                                 : 37 b/s
  57. Count of elements                        : 1119
  58. Stream size                              : 26.0 KiB (0%)
  59. Title                                    : SRT
  60. Language                                 : English
  61. Default                                  : Yes
  62. Forced                                   : No
  63. Text #2
  64. ID                                       : 4
  65. Format                                   : PGS
  66. Muxing mode                              : zlib
  67. Codec ID                                 : S_HDMV/PGS
  68. Codec ID/Info                            : Picture based subtitle format used on BDs/HD-DVDs
  69. Duration                                 : 1 h 32 min
  70. Bit rate                                 : 21.0 kb/s
  71. Count of elements                        : 1840
  72. Stream size                              : 13.9 MiB (0%)
  73. Language                                 : German
  74. Default                                  : No
  75. Forced                                   : No
  76. Menu
  77. 00:00:00.000                             : :Chapter 1
  78. 00:02:32.903                             : :Chapter 2
  79. 00:13:18.798                             : :Chapter 3
  80. 00:23:26.155                             : :Chapter 4
  81. 00:30:10.142                             : :Chapter 5
  82. 00:36:09.209                             : :Chapter 6
  83. 00:48:48.384                             : :Chapter 7
  84. 00:59:25.479                             : :Chapter 8
  85. 01:10:52.331                             : :Chapter 9
  86. 01:17:32.606                             : :Chapter 10
  87. 01:24:24.434                             : :Chapter 11
  88. 01:34:47.515                             : :Chapter 12
复制代码





                                       
                                       

                                       
                                       
                                       




回复

使用道具 举报

懒得打字嘛,点击右侧快捷回复 【右侧内容,后台自定义】
您需要登录后才可以回帖 登录 | 立即加入

本版积分规则

Archiver|小黑屋| 蓝光电影网 |网站地图

Copyright © 2021 Comsenz Inc. Powered by 蓝光电影网

蓝光电影网

本站内容由用户自主分享和转载自互联网,转载目的在于传递更多信息,并不代表本网赞同其观点和对其真实性负责。

如有侵权、违反国家法律政策行为,请联系我们,我们会第一时间及时清除和处理!

举报反馈邮箱:[email protected]

快速回复 返回顶部 返回列表