找回密码

蓝光电影网

查看: 9|回复: 0

[动作] 占领2 Occupation.Rainfall.2020.1080p.BluRay.x264.DTS-NOGRP 9.57GB

[复制链接]
蓝光币
386
发表于 2021-6-5 22:17:12 | 显示全部楼层 |阅读模式


◎译  名 占据2/Occupation Rainfall
◎片  名 Occupation 2
◎年  代 2019
◎产  地 澳大利亚 Australia
◎类  别 行动 / 科幻
◎语  言 英语
◎上映日期 2021-01-28(澳大利亚)
◎豆瓣评分 /10 from 0 users
◎豆瓣链接 https://movie.douban.com/subject/30280504/
◎主  演 郑肯 Ken Jeong
       特穆拉·莫里森 Temuera Morrison
       丹尼尔·尤因 Daniel Ewing
◎标  签 科幻 | 剧情 | 1080pWEBrip-RARBG
◎简  介


  郑肯([摘金奇缘])加盟澳大利亚科幻片[占据]续集。首部导演卢克·斯巴克回归执导,卡司包括特穆拉·莫里森、丹尼尔·尤因、斯蒂芬妮·雅格布森等。首部于今年7月北美上映,故事围绕小镇居民协力抵抗外星入侵展开。续集将鄙人月澳洲开机。
  1. Video
  2. ID                                       : 1
  3. Format                                   : AVC
  4. Format/Info                              : Advanced Video Codec
  5. Format profile                           : [email protected]
  6. Format settings                          : CABAC / 5 Ref Frames
  7. Format settings, CABAC                   : Yes
  8. Format settings, Reference frames        : 5 frames
  9. Codec ID                                 : V_MPEG4/ISO/AVC
  10. Duration                                 : 2 h 8 min
  11. Bit rate                                 : 9 179 kb/s
  12. Width                                    : 1 920 pixels
  13. Height                                   : 800 pixels
  14. Display aspect ratio                     : 2.40:1
  15. Frame rate mode                          : Constant
  16. Frame rate                               : 23.976 (24000/1001/189150) FPS
  17. Color space                              : YUV
  18. Chroma subsampling                       : 4:2:0
  19. Bit depth                                : 8 bits
  20. Scan type                                : Progressive
  21. Bits/(Pixel*Frame)                       : 0.249
  22. Stream size                              : 8.22 GiB (86%)
  23. Writing library                          : x264 core 152 r2851 ba24899
  24. Encoding settings                        : cabac=1 / ref=5 / deblock=1:-3:-3 / analyse=0x3:0x113 / me=umh / subme=10 / psy=1 / psy_rd=1.00:0.00 / mixed_ref=1 / me_range=24 / chroma_me=1 / trellis=2 / 8x8dct=1 / cqm=0 / deadzone=21,11 / fast_pskip=1 / chroma_qp_offset=-2 / threads=25 / lookahead_threads=4 / sliced_threads=0 / nr=0 / decimate=1 / interlaced=0 / bluray_compat=0 / constrained_intra=0 / bframes=8 / b_pyramid=2 / b_adapt=2 / b_bias=0 / direct=3 / weightb=1 / open_gop=0 / weightp=2 / keyint=230 / keyint_min=23 / scenecut=40 / intra_refresh=0 / rc_lookahead=60 / rc=2pass / mbtree=1 / bitrate=9179 / ratetol=1.0 / qcomp=0.60 / qpmin=0 / qpmax=69 / qpstep=4 / cplxblur=20.0 / qblur=0.5 / vbv_maxrate=62500 / vbv_bufsize=78125 / nal_hrd=none / filler=0 / ip_ratio=1.40 / aq=1:1.00
  25. Default                                  : Yes
  26. Forced                                   : No
  27. Audio
  28. ID                                       : 2
  29. Format                                   : DTS
  30. Format/Info                              : Digital Theater Systems
  31. Codec ID                                 : A_DTS
  32. Duration                                 : 2 h 8 min
  33. Bit rate mode                            : Constant
  34. Bit rate                                 : 1 509 kb/s
  35. Channel(s)                               : 6 channels
  36. Channel layout                           : C L R Ls Rs LFE
  37. Sampling rate                            : 48.0 kHz
  38. Frame rate                               : 93.750 FPS (512 SPF)
  39. Bit depth                                : 24 bits
  40. Compression mode                         : Lossy
  41. Stream size                              : 1.35 GiB (14%)
  42. Language                                 : English
  43. Default                                  : No
  44. Forced                                   : No
  45. Menu
  46. 00:00:00.000                             : Chapter 01
  47. 00:12:24.535                             : Chapter 02
  48. 00:20:18.634                             : Chapter 03
  49. 00:31:39.355                             : Chapter 04
  50. 00:38:53.706                             : Chapter 05
  51. 00:49:36.598                             : Chapter 06
  52. 00:59:38.366                             : Chapter 07
  53. 01:13:27.653                             : Chapter 08
  54. 01:27:06.429                             : Chapter 09
  55. 01:39:08.567                             : Chapter 10
  56. 01:49:48.707                             : Chapter 11
  57. 02:01:42.712                             : Chapter 12
复制代码







                                       
                                       

                                       
                                       
                                       




回复

使用道具 举报

懒得打字嘛,点击右侧快捷回复 【右侧内容,后台自定义】
您需要登录后才可以回帖 登录 | 立即加入

本版积分规则

Archiver|小黑屋| 蓝光电影网 |网站地图

Copyright © 2021 Comsenz Inc. Powered by 蓝光电影网

蓝光电影网

本站内容由用户自主分享和转载自互联网,转载目的在于传递更多信息,并不代表本网赞同其观点和对其真实性负责。

如有侵权、违反国家法律政策行为,请联系我们,我们会第一时间及时清除和处理!

举报反馈邮箱:[email protected]

快速回复 返回顶部 返回列表