找回密码

蓝光电影网

查看: 4|回复: 0

[喜剧] 疯狂复仇记 Watch.Out.Were.Mad.1974.1080p.BluRay.x264-PSYCHD 7.95GB

[复制链接]
蓝光币
382
发表于 2020-8-17 09:56:05 | 显示全部楼层 |阅读模式


◎译  名 疯狂复仇记 / Watch out, we are mad
◎片  名 ...altrimenti ci arrabbiamo!
◎年  代 1974
◎产  地 意大利 / 西班牙
◎类  别 笑剧 / 行动
◎语  言 英语 / 意大利语
◎上映日期 1974
◎IMDb评分  7.5/10 from 10563 users
◎IMDb链接  https://www.imdb.com/title/tt0069697
◎豆瓣评分 0/10 from 0 users
◎豆瓣链接 https://movie.douban.com/subject/3807052/
◎片  长 101 分钟
◎导  演 马尔切洛·丰达托 Marcello Fondato
◎编  剧 Vicente Coello / Jesús R. Folgar
◎主  演 特伦斯·希尔 Terence Hill
       布德·斯藩塞 Bud Spencer
       帕蒂·谢帕德 Patty Shepard
       唐纳德·普利森斯 Donald Pleasence
       曼纽尔·德·巴拉斯 Manuel de Blas
       埃米利奥·拉古纳 Emilio Laguna

◎标  签 意大利 | 笑剧 | 1970 | 电影 | 行动 | 1974 | 被轻忽的电影 | 欧洲电影
◎简  介

  
  Kid和Ben 在角逐中赢得了一辆红色沙漠车。二报酬了一切权争取时,车被当地黑帮毁了!因而二人实施报复。
  1. Video
  2. ID                                       : 1
  3. Format                                   : AVC
  4. Format/Info                              : Advanced Video Codec
  5. Format profile                           : [email protected]
  6. Format settings                          : CABAC / 4 Ref Frames
  7. Format settings, CABAC                   : Yes
  8. Format settings, Reference frames        : 4 frames
  9. Codec ID                                 : V_MPEG4/ISO/AVC
  10. Duration                                 : 1 h 41 min
  11. Bit rate                                 : 9 673 kb/s
  12. Width                                    : 1 920 pixels
  13. Height                                   : 1 080 pixels
  14. Display aspect ratio                     : 16:9
  15. Frame rate mode                          : Constant
  16. Frame rate                               : 23.976 (24000/1001/189150) FPS
  17. Color space                              : YUV
  18. Chroma subsampling                       : 4:2:0
  19. Bit depth                                : 8 bits
  20. Scan type                                : Progressive
  21. Bits/(Pixel*Frame)                       : 0.195
  22. Stream size                              : 6.72 GiB (85%)
  23. Writing library                          : x264 core 140 r2377 1ca7bb9
  24. Encoding settings                        : cabac=1 / ref=4 / deblock=1:-3:-3 / analyse=0x3:0x133 / me=umh / subme=8 / psy=1 / psy_rd=1.00:0.15 / mixed_ref=1 / me_range=16 / chroma_me=1 / trellis=1 / 8x8dct=1 / cqm=0 / deadzone=21,11 / fast_pskip=0 / chroma_qp_offset=-3 / threads=12 / lookahead_threads=2 / sliced_threads=0 / nr=0 / decimate=1 / interlaced=0 / bluray_compat=0 / constrained_intra=0 / bframes=3 / b_pyramid=2 / b_adapt=2 / b_bias=0 / direct=3 / weightb=1 / open_gop=0 / weightp=2 / keyint=240 / keyint_min=23 / scenecut=40 / intra_refresh=0 / rc_lookahead=50 / rc=2pass / mbtree=1 / bitrate=9673 / ratetol=1.0 / qcomp=0.60 / qpmin=0 / qpmax=69 / qpstep=4 / cplxblur=20.0 / qblur=0.5 / ip_ratio=1.40 / aq=1:1.00
  25. Language                                 : English
  26. Default                                  : Yes
  27. Forced                                   : No

  28. Audio
  29. ID                                       : 2
  30. Format                                   : DTS
  31. Format/Info                              : Digital Theater Systems
  32. Codec ID                                 : A_DTS
  33. Duration                                 : 1 h 41 min
  34. Bit rate mode                            : Constant
  35. Bit rate                                 : 1 509 kb/s
  36. Channel(s)                               : 6 channels
  37. Channel(s)_Original                      : 2 channels
  38. ChannelLayout_Original                   : L R
  39. Sampling rate                            : 48.0 kHz
  40. Frame rate                               : 93.750 FPS (512 SPF)
  41. Bit depth                                : 24 bits
  42. Compression mode                         : Lossy
  43. Stream size                              : 1.07 GiB (13%)
  44. Language                                 : English
  45. Default                                  : Yes
  46. Forced                                   : No

  47. Menu
  48. 00:00:00.000                             : en:00:00:00.000
  49. 00:13:14.419                             : en:00:13:14.419
  50. 00:27:58.594                             : en:00:27:58.594
  51. 00:41:37.954                             : en:00:41:37.954
  52. 00:52:57.424                             : en:00:52:57.424
  53. 01:05:55.827                             : en:01:05:55.827
  54. 01:23:48.899                             : en:01:23:48.899
  55. 01:34:27.245                             : en:01:34:27.245
复制代码






                                       
                                       

                                       
                                       
                                       




回复

使用道具 举报

懒得打字嘛,点击右侧快捷回复 【右侧内容,后台自定义】
您需要登录后才可以回帖 登录 | 立即加入

本版积分规则

Archiver|小黑屋| 蓝光电影网 |网站地图

Copyright © 2021 Comsenz Inc. Powered by 蓝光电影网

蓝光电影网

本站内容由用户自主分享和转载自互联网,转载目的在于传递更多信息,并不代表本网赞同其观点和对其真实性负责。

如有侵权、违反国家法律政策行为,请联系我们,我们会第一时间及时清除和处理!

举报反馈邮箱:[email protected]

快速回复 返回顶部 返回列表