找回密码

蓝光电影网

查看: 17|回复: 0

[其他] 追浪:莱尔德·汉密尔顿的一生/冲浪潮人 Take.Every.Wave.The.Life.of.Laird.Hamilton.2017.1080p.WEBRip.x264-RARBG 2.25GB

[复制链接]
蓝光币
426
发表于 2020-1-23 18:40:59 | 显示全部楼层 |阅读模式


◎译  名 追浪:莱尔德·汉密尔顿的平生 / 冲浪潮人(台)
◎片  名 Take Every Wave: The Life of Laird Hamilton
◎年  代 2017
◎产  地 美国
◎类  别 记载片 / 活动
◎语  言 英语
◎上映日期 2017-01-22(圣丹斯电影节)
◎IMDb评分  7.3/10 from 407 users
◎IMDb链接  https://www.imdb.com/title/tt6333092
◎豆瓣评分 0/10 from 0 users
◎豆瓣链接 https://movie.douban.com/subject/27064673/
◎片  长 118分钟
◎导  演 罗瑞·肯尼迪 Rory Kennedy
◎编  剧 Jack Youngelson / 马克·贝利 Mark Bailey
◎标  签 记载片 | 冲浪 | 活动 | 美国 | 体育 | *活动 | 自然 | 电影节
◎简  介  
  影片全方位的记录了美国顶级出色的冲浪运带动莱尔德·汉密尔顿的平生。莱尔德汉密尔顿的平生,记录了冲浪运带动莱尔德汉密尔顿的非凡生活和传奇生活。虽然冲浪行业经常被鄙夷或疏忽其重要性,但莱尔德是一个怪异的体育偶像——一个拒绝在专业范畴介入一切合作角逐的运带动,但在历史上从未有过其他的人物。
  莱尔德的列传故事是在考艾岛冬季冲浪季节的布景下报告的,厄尔尼诺的风暴系统威胁着几十年来最大的海浪。在加州南部、百慕大群岛和考艾岛拍摄确今世垂直场景中,每一波海浪都将曩昔和现在的场景交织在一路,构成了一幅密切而引人注视标超级明星运带动的肖像。贯串始终的是对莱尔德的一次深度的小我访谈,以及与家人、朋友、合作者和最领会他的毁谤者的说话。
  1. Video
  2. ID                                       : 1
  3. Format                                   : AVC
  4. Format/Info                              : Advanced Video Codec
  5. Format profile                           : [email protected]
  6. Format settings                          : CABAC / 4 Ref Frames
  7. Format settings, CABAC                   : Yes
  8. Format settings, Reference frames        : 4 frames
  9. Codec ID                                 : avc1
  10. Codec ID/Info                            : Advanced Video Coding
  11. Duration                                 : 1 h 57 min
  12. Bit rate                                 : 2 500 kb/s
  13. Width                                    : 1 920 pixels
  14. Height                                   : 1 080 pixels
  15. Display aspect ratio                     : 16:9
  16. Frame rate mode                          : Constant
  17. Frame rate                               : 23.976 (23976/1000) FPS
  18. Color space                              : YUV
  19. Chroma subsampling                       : 4:2:0
  20. Bit depth                                : 8 bits
  21. Scan type                                : Progressive
  22. Bits/(Pixel*Frame)                       : 0.050
  23. Stream size                              : 2.06 GiB (92%)
  24. Writing library                          : x264 core 152 r2851M ba24899
  25. Encoding settings                        : cabac=1 / ref=4 / deblock=1:-1:-1 / analyse=0x3:0x113 / me=umh / subme=9 / psy=1 / psy_rd=1.00:0.15 / mixed_ref=1 / me_range=24 / chroma_me=1 / trellis=2 / 8x8dct=1 / cqm=0 / deadzone=21,11 / fast_pskip=1 / chroma_qp_offset=-3 / threads=16 / lookahead_threads=4 / sliced_threads=0 / nr=0 / decimate=1 / interlaced=0 / bluray_compat=0 / constrained_intra=0 / bframes=3 / b_pyramid=2 / b_adapt=2 / b_bias=0 / direct=3 / weightb=1 / open_gop=0 / weightp=2 / keyint=250 / keyint_min=25 / scenecut=40 / intra_refresh=0 / rc_lookahead=50 / rc=2pass / mbtree=1 / bitrate=2500 / ratetol=1.0 / qcomp=0.60 / qpmin=0 / qpmax=69 / qpstep=4 / cplxblur=20.0 / qblur=0.5 / vbv_maxrate=31250 / vbv_bufsize=31250 / nal_hrd=none / filler=0 / ip_ratio=1.40 / aq=3:1.00
  26. Encoded date                             : UTC 2020-01-23 09:29:55
  27. Tagged date                              : UTC 2020-01-23 09:29:55
  28. Codec configuration box                  : avcC
  29. Audio
  30. ID                                       : 2
  31. Format                                   : AAC LC
  32. Format/Info                              : Advanced Audio Codec Low Complexity
  33. Codec ID                                 : mp4a-40-2
  34. Duration                                 : 1 h 57 min
  35. Duration_LastFrame                       : -11 ms
  36. Bit rate mode                            : Constant
  37. Bit rate                                 : 224 kb/s
  38. Channel(s)                               : 6 channels
  39. Channel layout                           : C L R Ls Rs LFE
  40. Sampling rate                            : 48.0 kHz
  41. Frame rate                               : 46.875 FPS (1024 SPF)
  42. Compression mode                         : Lossy
  43. Stream size                              : 189 MiB (8%)
  44. Language                                 : English
  45. Default                                  : Yes
  46. Alternate group                          : 1
  47. Encoded date                             : UTC 2020-01-23 09:29:55
  48. Tagged date                              : UTC 2020-01-23 09:29:55
复制代码






                                       
                                       

                                       
                                       
                                       




回复

使用道具 举报

懒得打字嘛,点击右侧快捷回复 【右侧内容,后台自定义】
您需要登录后才可以回帖 登录 | 立即加入

本版积分规则

Archiver|小黑屋| 蓝光电影网 |网站地图

Copyright © 2021 Comsenz Inc. Powered by 蓝光电影网

蓝光电影网

本站内容由用户自主分享和转载自互联网,转载目的在于传递更多信息,并不代表本网赞同其观点和对其真实性负责。

如有侵权、违反国家法律政策行为,请联系我们,我们会第一时间及时清除和处理!

举报反馈邮箱:[email protected]

快速回复 返回顶部 返回列表