找回密码

蓝光电影网

查看: 30|回复: 0

[动作] 拆弹专家2 Shock.Wave.2.2020.CHINESE.1080p.BluRay.x264.DD5.1-iKiW 12.47GB

[复制链接]
蓝光币
426
发表于 2021-6-5 20:43:19 | 显示全部楼层 |阅读模式


◎译  名 Shock Wave 2
◎片  名 拆弹专家2
◎年  代 2020
◎产  地 中国大陆,中国香港
◎类  别 行动 / 犯罪
◎语  言 汉语普通话,粤语,英语
◎上映日期 2020-12-24(中国大陆) / 2021-02-18(中国香港)
◎豆瓣评分 7.6/10 from 455939 users
◎豆瓣链接 https://movie.douban.com/subject/30171424/
◎片  长 121分钟
◎导  演 邱礼涛 Herman Yau
◎编  剧 邱礼涛 Herman Yau / 李敏 Erica Lee / 李昇 Eric Lee
◎主  演 刘德华 Andy Lau
       刘青云 Sean Lau
       倪妮 Ni Ni
       谢君豪 Kwan-Ho Tse
       姜皓文 Philip Keung Ho-Man
       吴卓羲 Ron Ng
       马浴柯 Marc Ma
       黄德斌 Tak-bun Wong
       郑子诚 Tse-sing Cheng
       洪天明 Timmy Hung Tin-Ming
       袁富华 Fu-wah Yuen
       刘浩龙 Wilfred Lau
       凌文龙 Man-Lung Ling
       赵永洪 Raymond Chiu
       蔡瀚亿 Babyjohn Choi
       张竣杰 Chun Kit Chang
       声张 Yang Zhang
       伍咏诗 Ng Wing Sze
       吴海昕 Sofiee Ng
       周祉君 Aaron Chow
       梁天尺 Leung Tin Chak
       钟志光 Chung Chi Kwong
       顾纪筠 Priscilla Koo
       安吉·阿维斯塔 Angie Aveestar
       梁健平 Kin Ping Leung
       甄咏蓓 Olivia Yan
◎标  签 香港 | 警匪 | 犯罪 | 行动 | 2020 | 剧情 | 电影 | 华语
◎简  介


  香港某处发生爆炸案,前拆弹专家潘乘风(刘德华 饰)因昏迷于现场,被警方思疑牵扯其中。苏醒后的潘乘风只能一边流亡一边查明真相,但是,他的好友董卓文(刘青云 饰)和他的前女友庞玲(倪妮 饰)却给他报告了两段截然分歧的履历。有计划的爆炸案持续不断发生,真相却越来越扑朔迷离……
  1. Video
  2. ID                                       : 1
  3. Format                                   : AVC
  4. Format/Info                              : Advanced Video Codec
  5. Format profile                           : [email protected]
  6. Format settings                          : CABAC / 5 Ref Frames
  7. Format settings, CABAC                   : Yes
  8. Format settings, Reference frames        : 5 frames
  9. Codec ID                                 : V_MPEG4/ISO/AVC
  10. Duration                                 : 2 h 0 min
  11. Bit rate                                 : 13.6 Mb/s
  12. Width                                    : 1 920 pixels
  13. Height                                   : 804 pixels
  14. Display aspect ratio                     : 2.40:1
  15. Frame rate mode                          : Constant
  16. Frame rate                               : 24.000 FPS
  17. Color space                              : YUV
  18. Chroma subsampling                       : 4:2:0
  19. Bit depth                                : 8 bits
  20. Scan type                                : Progressive
  21. Bits/(Pixel*Frame)                       : 0.367
  22. Stream size                              : 11.4 GiB (91%)
  23. Writing library                          : x264 core 133 r2334 a3ac64b
  24. Encoding settings                        : cabac=1 / ref=5 / deblock=1:-3:-3 / analyse=0x3:0x113 / me=umh / subme=11 / psy=1 / psy_rd=1.05:0.05 / mixed_ref=1 / me_range=64 / chroma_me=1 / trellis=2 / 8x8dct=1 / cqm=0 / deadzone=21,11 / fast_pskip=0 / chroma_qp_offset=-5 / threads=36 / lookahead_threads=6 / sliced_threads=0 / nr=0 / decimate=0 / interlaced=0 / bluray_compat=0 / constrained_intra=0 / bframes=8 / b_pyramid=2 / b_adapt=2 / b_bias=0 / direct=3 / weightb=1 / open_gop=0 / weightp=2 / keyint=250 / keyint_min=24 / scenecut=40 / intra_refresh=0 / rc=2pass / mbtree=0 / bitrate=13600 / ratetol=1.0 / qcomp=0.60 / qpmin=0 / qpmax=69 / qpstep=4 / cplxblur=20.0 / qblur=0.5 / ip_ratio=1.40 / pb_ratio=1.30 / aq=1:0.80
  25. Language                                 : English
  26. Default                                  : Yes
  27. Forced                                   : No
  28. Audio #1
  29. ID                                       : 2
  30. Format                                   : AC-3
  31. Format/Info                              : Audio Coding 3
  32. Commercial name                          : Dolby Digital
  33. Format settings                          : Dolby Surround EX
  34. Codec ID                                 : A_AC3
  35. Duration                                 : 2 h 0 min
  36. Bit rate mode                            : Constant
  37. Bit rate                                 : 640 kb/s
  38. Channel(s)                               : 6 channels
  39. Channel layout                           : L R C LFE Ls Rs
  40. Sampling rate                            : 48.0 kHz
  41. Frame rate                               : 31.250 FPS (1536 SPF)
  42. Compression mode                         : Lossy
  43. Stream size                              : 551 MiB (4%)
  44. Title                                    : 国语
  45. Language                                 : Chinese
  46. Service kind                             : Complete Main
  47. Default                                  : Yes
  48. Forced                                   : No
  49. Audio #2
  50. ID                                       : 3
  51. Format                                   : AC-3
  52. Format/Info                              : Audio Coding 3
  53. Commercial name                          : Dolby Digital
  54. Format settings                          : Dolby Surround EX
  55. Codec ID                                 : A_AC3
  56. Duration                                 : 2 h 0 min
  57. Bit rate mode                            : Constant
  58. Bit rate                                 : 640 kb/s
  59. Channel(s)                               : 6 channels
  60. Channel layout                           : L R C LFE Ls Rs
  61. Sampling rate                            : 48.0 kHz
  62. Frame rate                               : 31.250 FPS (1536 SPF)
  63. Compression mode                         : Lossy
  64. Stream size                              : 551 MiB (4%)
  65. Title                                    : 粤语
  66. Language                                 : Chinese
  67. Service kind                             : Complete Main
  68. Default                                  : No
  69. Forced                                   : No
  70. Text #1
  71. ID                                       : 4
  72. Format                                   : UTF-8
  73. Codec ID                                 : S_TEXT/UTF8
  74. Codec ID/Info                            : UTF-8 Plain Text
  75. Duration                                 : 1 h 55 min
  76. Bit rate                                 : 51 b/s
  77. Count of elements                        : 1815
  78. Stream size                              : 43.8 KiB (0%)
  79. Language                                 : English
  80. Default                                  : Yes
  81. Forced                                   : No
  82. Text #2
  83. ID                                       : 5
  84. Format                                   : ASS
  85. Codec ID                                 : S_TEXT/ASS
  86. Codec ID/Info                            : Advanced Sub Station Alpha
  87. Duration                                 : 1 h 55 min
  88. Bit rate                                 : 196 b/s
  89. Count of elements                        : 1839
  90. Compression mode                         : Lossless
  91. Stream size                              : 165 KiB (0%)
  92. Title                                    : cht
  93. Language                                 : Chinese
  94. Default                                  : No
  95. Forced                                   : No
  96. Text #3
  97. ID                                       : 6
  98. Format                                   : ASS
  99. Codec ID                                 : S_TEXT/ASS
  100. Codec ID/Info                            : Advanced Sub Station Alpha
  101. Duration                                 : 1 h 55 min
  102. Bit rate                                 : 196 b/s
  103. Count of elements                        : 1839
  104. Compression mode                         : Lossless
  105. Stream size                              : 165 KiB (0%)
  106. Title                                    : chs
  107. Language                                 : Chinese
  108. Default                                  : No
  109. Forced                                   : No
复制代码






                                       
                                       

                                       
                                       
                                       




回复

使用道具 举报

懒得打字嘛,点击右侧快捷回复 【右侧内容,后台自定义】
您需要登录后才可以回帖 登录 | 立即加入

本版积分规则

Archiver|小黑屋| 蓝光电影网 |网站地图

Copyright © 2021 Comsenz Inc. Powered by 蓝光电影网

蓝光电影网

本站内容由用户自主分享和转载自互联网,转载目的在于传递更多信息,并不代表本网赞同其观点和对其真实性负责。

如有侵权、违反国家法律政策行为,请联系我们,我们会第一时间及时清除和处理!

举报反馈邮箱:[email protected]

快速回复 返回顶部 返回列表