找回密码

蓝光电影网

查看: 28|回复: 0

[其他] 别放手 Dont.Let.Go.2019.720p.BluRay.x264-AAA 4.36GB

[复制链接]
蓝光币
386
发表于 2019-11-16 23:12:58 | 显示全部楼层 |阅读模式


◎译  名 别罢休 / Only You / Relive / 只要你 / 重温灭亡
◎片  名 Don't Let Go
◎年  代 2019
◎产  地 美国
◎类  别 悬疑 / 惊悚 / 可骇
◎语  言 英语
◎上映日期 2019-01-27(圣丹斯电影节) / 2019-08-30(美国)
◎IMDb评分  5.8/10 from 915 users
◎IMDb链接  https://www.imdb.com/title/tt6803212
◎豆瓣评分 0/10 from 0 users
◎豆瓣链接 https://movie.douban.com/subject/27092550/
◎片  长 107分钟(圣丹斯电影节)
◎导  演 雅各布·艾伦·埃斯戴斯 Jacob Aaron Estes
◎编  剧 雅各布·艾伦·埃斯戴斯 Jacob Aaron Estes / 德鲁·戴沃特 Drew Daywalt
◎主  演 大卫·奥伊罗 David Oyelowo
       斯托姆·瑞德 Storm Reid
       麦凯尔泰·威廉逊 Mykelti Williamson
       文峰 Byron Mann
       奥马尔·莱瓦 Omar Leyva
       Shinelle Azoroh
       Daniel R. Lawson

◎标  签 美国 | 可骇 | Mykelti_Williamson | David_Oyelowo | 电影 | Jacob_Estes | 音 | 美国电影
◎简  介  
  [时候的皱折]童星斯托姆·瑞德加盟惊悚片[只要你](Only You,暂译),与大卫·奥伊罗上演对手戏。雅各布·埃斯戴斯(美版[半夜凶铃3]编剧)自编自导,故事报告一位差人(奥伊罗饰)的家人被杀后,他的侄女(瑞德饰)也面临朝不保夕的地步。Blumhouse Productions担任建造。影片已于本周洛杉矶开机。
  1. Video
  2. ID                                       : 1
  3. Format                                   : AVC
  4. Format/Info                              : Advanced Video Codec
  5. Format profile                           : [email protected]
  6. Format settings                          : CABAC / 5 Ref Frames
  7. Format settings, CABAC                   : Yes
  8. Format settings, Reference frames        : 5 frames
  9. Codec ID                                 : V_MPEG4/ISO/AVC
  10. Duration                                 : 1 h 43 min
  11. Bit rate                                 : 4 536 kb/s
  12. Width                                    : 1 280 pixels
  13. Height                                   : 536 pixels
  14. Display aspect ratio                     : 2.40:1
  15. Frame rate mode                          : Constant
  16. Frame rate                               : 23.976 (24000/1001) FPS
  17. Color space                              : YUV
  18. Chroma subsampling                       : 4:2:0
  19. Bit depth                                : 8 bits
  20. Scan type                                : Progressive
  21. Bits/(Pixel*Frame)                       : 0.276
  22. Stream size                              : 3.27 GiB (75%)
  23. Title                                    : Dont.Let.Go.2019.720p.BluRay.x264-AAA
  24. Writing library                          : x264 core 157 r2969 d4099dd
  25. Encoding settings                        : cabac=1 / ref=5 / deblock=1:0:0 / analyse=0x3:0x113 / me=umh / subme=8 / psy=1 / psy_rd=1.00:0.00 / mixed_ref=1 / me_range=16 / chroma_me=1 / trellis=1 / 8x8dct=1 / cqm=0 / deadzone=21,11 / fast_pskip=1 / chroma_qp_offset=-2 / threads=16 / lookahead_threads=2 / sliced_threads=0 / nr=0 / decimate=1 / interlaced=0 / bluray_compat=0 / constrained_intra=0 / bframes=3 / b_pyramid=2 / b_adapt=2 / b_bias=0 / direct=3 / weightb=1 / open_gop=0 / weightp=2 / keyint=240 / keyint_min=23 / scenecut=40 / intra_refresh=0 / rc_lookahead=50 / rc=2pass / mbtree=1 / bitrate=4536 / ratetol=1.0 / qcomp=0.60 / qpmin=0 / qpmax=69 / qpstep=4 / cplxblur=20.0 / qblur=0.5 / ip_ratio=1.40 / aq=1:1.00
  26. Default                                  : Yes
  27. Forced                                   : No

  28. Audio
  29. ID                                       : 2
  30. Format                                   : DTS
  31. Format/Info                              : Digital Theater Systems
  32. Codec ID                                 : A_DTS
  33. Duration                                 : 1 h 43 min
  34. Bit rate mode                            : Constant
  35. Bit rate                                 : 1 509 kb/s
  36. Channel(s)                               : 6 channels
  37. Channel layout                           : C L R Ls Rs LFE
  38. Sampling rate                            : 48.0 kHz
  39. Frame rate                               : 93.750 FPS (512 SPF)
  40. Bit depth                                : 24 bits
  41. Compression mode                         : Lossy
  42. Stream size                              : 1.09 GiB (25%)
  43. Title                                    : English
  44. Language                                 : English
  45. Default                                  : Yes
  46. Forced                                   : No

  47. Menu
  48. 00:00:00.000                             : en:00:00:00.000
  49. 00:05:51.601                             : en:00:05:51.601
  50. 00:10:38.680                             : en:00:10:38.680
  51. 00:14:29.410                             : en:00:14:29.410
  52. 00:21:05.931                             : en:00:21:05.931
  53. 00:24:03.442                             : en:00:24:03.442
  54. 00:34:01.539                             : en:00:34:01.539
  55. 00:39:17.355                             : en:00:39:17.355
  56. 00:45:06.120                             : en:00:45:06.120
  57. 00:50:17.681                             : en:00:50:17.681
  58. 00:57:30.530                             : en:00:57:30.530
  59. 01:03:50.493                             : en:01:03:50.493
  60. 01:07:27.335                             : en:01:07:27.335
  61. 01:13:07.967                             : en:01:13:07.967
  62. 01:16:40.471                             : en:01:16:40.471
  63. 01:20:48.469                             : en:01:20:48.469
  64. 01:24:14.675                             : en:01:24:14.675
  65. 01:30:36.431                             : en:01:30:36.431
  66. 01:34:38.965                             : en:01:34:38.965
  67. 01:37:38.269                             : en:01:37:38.269
复制代码




                                       
                                       

                                       
                                       
                                       




回复

使用道具 举报

懒得打字嘛,点击右侧快捷回复 【右侧内容,后台自定义】
您需要登录后才可以回帖 登录 | 立即加入

本版积分规则

Archiver|小黑屋| 蓝光电影网 |网站地图

Copyright © 2021 Comsenz Inc. Powered by 蓝光电影网

蓝光电影网

本站内容由用户自主分享和转载自互联网,转载目的在于传递更多信息,并不代表本网赞同其观点和对其真实性负责。

如有侵权、违反国家法律政策行为,请联系我们,我们会第一时间及时清除和处理!

举报反馈邮箱:[email protected]

快速回复 返回顶部 返回列表