找回密码

蓝光电影网

查看: 14|回复: 0

[恐怖] 墓地亡灵3:幽灵船 The.Ghost.Galleon.1974.SPANISH.1080p.BluRay.x264-HANDJOB 7.43GB

[复制链接]
蓝光币
382
发表于 2021-2-4 08:51:22 | 显示全部楼层 |阅读模式


◎译  名 墓地亡灵3:鬼魂船/The Ghost Galleon
◎片  名 El buque maldito
◎年  代 1974
◎产  地 西班牙
◎类  别 可骇
◎语  言 西班牙语
◎上映日期 1974
◎IMDb评分  4.6/10 from 2387 users
◎IMDb链接  https://www.imdb.com/title/tt0071256/
◎豆瓣评分 6.1/10 from 79 users
◎豆瓣链接 https://movie.douban.com/subject/2238531/
◎片  长 USA: 89 分钟
◎导  演 阿曼多·德·奥索里奥 Amando de Ossorio
◎编  剧 阿曼多·德·奥索里奥 Amando de Ossorio
◎主  演 玛利亚·珀丝齐 Maria Perschy
       杰克·泰勒 Jack Taylor
       芭芭拉·雷伊 Bárbara Rey
       曼纽尔·德·巴拉斯 Manuel de Blas
◎标  签 可骇 | 西班牙 | 丧尸 | cult | 僵尸 | 西班牙电影 | 电影 | 1974
◎简  介


  两个女孩在海中搭船游玩时不幸抛锚,但碰到了一艘烧毁已久的中世纪大型风帆,猎奇的女孩们登上船,却引来了杀身之祸,未几其好友获得讯号后,也来到这艘船上寻觅她们,却发现这船早已被死人占据。
  
  本来,船上遍及为保护玉帛而死的邪恶十字军,他们的到来打搅了亡灵们的安息,因而新生的丧尸们展开了大举杀戮……
  
  (http://www.kan84.net/bdhd/btElbuquemaldito.html)
  1. Video
  2. ID                                       : 1
  3. Format                                   : AVC
  4. Format/Info                              : Advanced Video Codec
  5. Format profile                           : [email protected]
  6. Format settings                          : CABAC / 4 Ref Frames
  7. Format settings, CABAC                   : Yes
  8. Format settings, Reference frames        : 4 frames
  9. Codec ID                                 : V_MPEG4/ISO/AVC
  10. Duration                                 : 1 h 30 min
  11. Bit rate                                 : 11.0 Mb/s
  12. Width                                    : 1 910 pixels
  13. Height                                   : 1 038 pixels
  14. Display aspect ratio                     : 1.85:1
  15. Frame rate mode                          : Constant
  16. Frame rate                               : 23.976 (24000/1001/189150) FPS
  17. Color space                              : YUV
  18. Chroma subsampling                       : 4:2:0
  19. Bit depth                                : 8 bits
  20. Scan type                                : Progressive
  21. Bits/(Pixel*Frame)                       : 0.232
  22. Stream size                              : 6.95 GiB (94%)
  23. Writing library                          : x264 core 160 r3011 cde9a93
  24. Encoding settings                        : cabac=1 / ref=4 / deblock=1:-3:-3 / analyse=0x3:0x133 / me=umh / subme=11 / psy=1 / psy_rd=1.00:0.00 / mixed_ref=1 / me_range=32 / chroma_me=1 / trellis=2 / 8x8dct=1 / cqm=0 / deadzone=21,11 / fast_pskip=0 / chroma_qp_offset=-2 / threads=24 / lookahead_threads=6 / sliced_threads=0 / nr=0 / decimate=0 / interlaced=0 / bluray_compat=0 / constrained_intra=0 / bframes=16 / b_pyramid=2 / b_adapt=2 / b_bias=0 / direct=3 / weightb=1 / open_gop=0 / weightp=2 / keyint=240 / keyint_min=24 / scenecut=40 / intra_refresh=0 / rc_lookahead=60 / rc=crf / mbtree=0 / crf=21.0 / qcomp=0.60 / qpmin=0 / qpmax=69 / qpstep=4 / vbv_maxrate=62500 / vbv_bufsize=78125 / crf_max=0.0 / nal_hrd=none / filler=0 / ip_ratio=1.30 / pb_ratio=1.20 / aq=1:0.90
  25. Default                                  : Yes
  26. Forced                                   : No
  27. Color range                              : Limited
  28. Color primaries                          : BT.709
  29. Transfer characteristics                 : BT.709
  30. Matrix coefficients                      : BT.709
  31. Audio #1
  32. ID                                       : 2
  33. Format                                   : AC-3
  34. Format/Info                              : Audio Coding 3
  35. Commercial name                          : Dolby Digital
  36. Codec ID                                 : A_AC3
  37. Duration                                 : 1 h 30 min
  38. Bit rate mode                            : Constant
  39. Bit rate                                 : 384 kb/s
  40. Channel(s)                               : 2 channels
  41. Channel layout                           : L R
  42. Sampling rate                            : 48.0 kHz
  43. Frame rate                               : 31.250 FPS (1536 SPF)
  44. Compression mode                         : Lossy
  45. Stream size                              : 248 MiB (3%)
  46. Language                                 : Spanish
  47. Service kind                             : Complete Main
  48. Default                                  : Yes
  49. Forced                                   : No
  50. Audio #2
  51. ID                                       : 3
  52. Format                                   : FLAC
  53. Format/Info                              : Free Lossless Audio Codec
  54. Codec ID                                 : A_FLAC
  55. Duration                                 : 1 h 30 min
  56. Bit rate mode                            : Variable
  57. Bit rate                                 : 371 kb/s
  58. Channel(s)                               : 2 channels
  59. Channel layout                           : L R
  60. Sampling rate                            : 48.0 kHz
  61. Frame rate                               : 11.719 FPS (4096 SPF)
  62. Bit depth                                : 16 bits
  63. Compression mode                         : Lossless
  64. Stream size                              : 240 MiB (3%)
  65. Title                                    : English Dub
  66. Writing library                          : libFLAC 1.2.1 (UTC 2007-09-17)
  67. Language                                 : English
  68. Default                                  : No
  69. Forced                                   : No
  70. Text
  71. ID                                       : 4
  72. Format                                   : UTF-8
  73. Codec ID                                 : S_TEXT/UTF8
  74. Codec ID/Info                            : UTF-8 Plain Text
  75. Duration                                 : 1 h 22 min
  76. Bit rate                                 : 37 b/s
  77. Count of elements                        : 604
  78. Stream size                              : 22.9 KiB (0%)
  79. Title                                    : For Spanish audio
  80. Language                                 : English
  81. Default                                  : Yes
  82. Forced                                   : No
  83. Menu
  84. 00:00:00.000                             : en:Chapter 01
  85. 00:04:13.837                             : en:Chapter 02
  86. 00:11:39.449                             : en:Chapter 03
  87. 00:27:14.883                             : en:Chapter 04
  88. 00:42:40.641                             : en:Chapter 05
  89. 00:55:53.767                             : en:Chapter 06
  90. 01:10:09.038                             : en:Chapter 07
  91. 01:21:39.144                             : en:Chapter 08
复制代码






                                       
                                       

                                       
                                       
                                       




回复

使用道具 举报

懒得打字嘛,点击右侧快捷回复 【右侧内容,后台自定义】
您需要登录后才可以回帖 登录 | 立即加入

本版积分规则

Archiver|小黑屋| 蓝光电影网 |网站地图

Copyright © 2021 Comsenz Inc. Powered by 蓝光电影网

蓝光电影网

本站内容由用户自主分享和转载自互联网,转载目的在于传递更多信息,并不代表本网赞同其观点和对其真实性负责。

如有侵权、违反国家法律政策行为,请联系我们,我们会第一时间及时清除和处理!

举报反馈邮箱:[email protected]

快速回复 返回顶部 返回列表