找回密码

蓝光电影网

查看: 36|回复: 0

[科幻] 绝密档案/档案 Archive.2020.1080p.BluRay.x264-PFa 16.24GB

[复制链接]
蓝光币
515
发表于 2020-12-18 12:40:10 | 显示全部楼层 |阅读模式
[img][/img]

◎译  名 绝密档案/档案
◎片  名 Archive
◎年  代 2020
◎产  地 英国,匈牙利,美国
◎类  别 科幻
◎语  言 英语
◎上映日期 2020-07-10(美国)
◎IMDb评分  6.3/10 from 9614 users
◎IMDb链接  https://www.imdb.com/title/tt6882604/
◎豆瓣评分 6.7/10 from 3583 users
◎豆瓣链接 https://movie.douban.com/subject/27043260/
◎片  长 109分钟
◎导  演 加文·罗瑟里 Gavin Rothery
◎编  剧 加文·罗瑟里 Gavin Rothery
◎主  演 西奥·詹姆斯 Theo James
       斯塔西·马汀 Stacy Martin
       罗娜·迈特拉 Rhona Mitra
       彼得·费迪南多 Peter Ferdinando
       莉娅·威廉姆斯 Lia Williams
       托比·琼斯 Toby Jones
       杰瑞米·惠勒 Jeremy Wheeler
       Hans Peterson
◎标  签 科幻 | 英国 | 2020 | 英国电影 | 史黛西·马汀 | 提奥·詹姆斯 | 欧洲 | watchlist
◎简  介


  提奥·詹姆斯加盟[绝密档案](Archive,暂译)。该片是[月球]的概念设想者加文·罗瑟里的导演童贞作。故事设备在近未来,提奥饰演的科学家,缔造出一款与人类非常接近的机械人,他的科研功效背后,却隐藏着不成告人的目标。[摩天大楼]摄影师劳里·罗斯将为本片掌镜。
  1. Video
  2. ID                                       : 1
  3. Format                                   : AVC
  4. Format/Info                              : Advanced Video Codec
  5. Format profile                           : [email protected]
  6. Format settings                          : CABAC / 5 Ref Frames
  7. Format settings, CABAC                   : Yes
  8. Format settings, Reference frames        : 5 frames
  9. Codec ID                                 : V_MPEG4/ISO/AVC
  10. Duration                                 : 1 h 49 min
  11. Bit rate                                 : 17.2 Mb/s
  12. Width                                    : 1 920 pixels
  13. Height                                   : 800 pixels
  14. Display aspect ratio                     : 2.40:1
  15. Frame rate mode                          : Constant
  16. Frame rate                               : 23.976 (24000/1001/189150) FPS
  17. Color space                              : YUV
  18. Chroma subsampling                       : 4:2:0
  19. Bit depth                                : 8 bits
  20. Scan type                                : Progressive
  21. Bits/(Pixel*Frame)                       : 0.468
  22. Stream size                              : 13.2 GiB (81%)
  23. Writing library                          : x264 core 157 r2969 d4099dd
  24. Encoding settings                        : cabac=1 / ref=5 / deblock=1:-3:-3 / analyse=0x3:0x133 / me=umh / subme=9 / psy=1 / psy_rd=1.00:0.00 / mixed_ref=1 / me_range=16 / chroma_me=1 / trellis=2 / 8x8dct=1 / cqm=0 / deadzone=21,11 / fast_pskip=1 / chroma_qp_offset=-2 / threads=12 / lookahead_threads=1 / sliced_threads=0 / nr=0 / decimate=1 / interlaced=0 / bluray_compat=0 / constrained_intra=0 / bframes=3 / b_pyramid=2 / b_adapt=2 / b_bias=0 / direct=3 / weightb=1 / open_gop=0 / weightp=2 / keyint=250 / keyint_min=23 / scenecut=40 / intra_refresh=0 / rc_lookahead=60 / rc=crf / mbtree=1 / crf=17.0 / qcomp=0.60 / qpmin=0 / qpmax=69 / qpstep=4 / ip_ratio=1.40 / aq=3:0.70
  25. Language                                 : English
  26. Default                                  : Yes
  27. Forced                                   : No

  28. Audio
  29. ID                                       : 2
  30. Format                                   : DTS XLL
  31. Format/Info                              : Digital Theater Systems
  32. Commercial name                          : DTS-HD Master Audio
  33. Codec ID                                 : A_DTS
  34. Duration                                 : 1 h 49 min
  35. Bit rate mode                            : Variable
  36. Bit rate                                 : 3 895 kb/s
  37. Channel(s)                               : 6 channels
  38. Channel layout                           : C L R Ls Rs LFE
  39. Sampling rate                            : 48.0 kHz
  40. Frame rate                               : 93.750 FPS (512 SPF)
  41. Bit depth                                : 24 bits
  42. Compression mode                         : Lossless
  43. Stream size                              : 2.98 GiB (18%)
  44. Default                                  : Yes
  45. Forced                                   : No

  46. Text #1
  47. ID                                       : 3
  48. Format                                   : PGS
  49. Muxing mode                              : zlib
  50. Codec ID                                 : S_HDMV/PGS
  51. Codec ID/Info                            : Picture based subtitle format used on BDs/HD-DVDs
  52. Duration                                 : 1 h 43 min
  53. Bit rate                                 : 43.3 kb/s
  54. Count of elements                        : 2372
  55. Stream size                              : 32.0 MiB (0%)
  56. Language                                 : English
  57. Default                                  : Yes
  58. Forced                                   : No

  59. Text #2
  60. ID                                       : 4
  61. Format                                   : PGS
  62. Muxing mode                              : zlib
  63. Codec ID                                 : S_HDMV/PGS
  64. Codec ID/Info                            : Picture based subtitle format used on BDs/HD-DVDs
  65. Duration                                 : 1 h 42 min
  66. Bit rate                                 : 34.3 kb/s
  67. Count of elements                        : 1940
  68. Stream size                              : 25.2 MiB (0%)
  69. Language                                 : French
  70. Default                                  : No
  71. Forced                                   : No

  72. Text #3
  73. ID                                       : 5
  74. Format                                   : PGS
  75. Muxing mode                              : zlib
  76. Codec ID                                 : S_HDMV/PGS
  77. Codec ID/Info                            : Picture based subtitle format used on BDs/HD-DVDs
  78. Duration                                 : 1 h 42 min
  79. Bit rate                                 : 32.7 kb/s
  80. Count of elements                        : 1954
  81. Stream size                              : 24.0 MiB (0%)
  82. Language                                 : Italian
  83. Default                                  : No
  84. Forced                                   : No

  85. Text #4
  86. ID                                       : 6
  87. Format                                   : PGS
  88. Muxing mode                              : zlib
  89. Codec ID                                 : S_HDMV/PGS
  90. Codec ID/Info                            : Picture based subtitle format used on BDs/HD-DVDs
  91. Duration                                 : 1 h 42 min
  92. Bit rate                                 : 33.1 kb/s
  93. Count of elements                        : 1962
  94. Stream size                              : 24.3 MiB (0%)
  95. Language                                 : Spanish
  96. Default                                  : No
  97. Forced                                   : No

  98. Text #5
  99. ID                                       : 7
  100. Format                                   : PGS
  101. Muxing mode                              : zlib
  102. Codec ID                                 : S_HDMV/PGS
  103. Codec ID/Info                            : Picture based subtitle format used on BDs/HD-DVDs
  104. Duration                                 : 1 h 42 min
  105. Bit rate                                 : 33.8 kb/s
  106. Count of elements                        : 1948
  107. Stream size                              : 24.8 MiB (0%)
  108. Language                                 : Dutch
  109. Default                                  : No
  110. Forced                                   : No

  111. Text #6
  112. ID                                       : 8
  113. Format                                   : PGS
  114. Muxing mode                              : zlib
  115. Codec ID                                 : S_HDMV/PGS
  116. Codec ID/Info                            : Picture based subtitle format used on BDs/HD-DVDs
  117. Duration                                 : 1 h 42 min
  118. Bit rate                                 : 29.6 kb/s
  119. Count of elements                        : 1634
  120. Stream size                              : 21.8 MiB (0%)
  121. Language                                 : Danish
  122. Default                                  : No
  123. Forced                                   : No

  124. Text #7
  125. ID                                       : 9
  126. Format                                   : PGS
  127. Muxing mode                              : zlib
  128. Codec ID                                 : S_HDMV/PGS
  129. Codec ID/Info                            : Picture based subtitle format used on BDs/HD-DVDs
  130. Duration                                 : 1 h 42 min
  131. Bit rate                                 : 29.2 kb/s
  132. Count of elements                        : 1896
  133. Stream size                              : 21.4 MiB (0%)
  134. Language                                 : Finnish
  135. Default                                  : No
  136. Forced                                   : No

  137. Text #8
  138. ID                                       : 10
  139. Format                                   : PGS
  140. Muxing mode                              : zlib
  141. Codec ID                                 : S_HDMV/PGS
  142. Codec ID/Info                            : Picture based subtitle format used on BDs/HD-DVDs
  143. Duration                                 : 1 h 42 min
  144. Bit rate                                 : 31.4 kb/s
  145. Count of elements                        : 1924
  146. Stream size                              : 23.0 MiB (0%)
  147. Language                                 : Norwegian
  148. Default                                  : No
  149. Forced                                   : No

  150. Text #9
  151. ID                                       : 11
  152. Format                                   : PGS
  153. Muxing mode                              : zlib
  154. Codec ID                                 : S_HDMV/PGS
  155. Codec ID/Info                            : Picture based subtitle format used on BDs/HD-DVDs
  156. Duration                                 : 1 h 42 min
  157. Bit rate                                 : 31.8 kb/s
  158. Count of elements                        : 1960
  159. Stream size                              : 23.3 MiB (0%)
  160. Language                                 : Swedish
  161. Default                                  : No
  162. Forced                                   : No
复制代码



                                       
                                       

                                       
                                       
                                       




回复

使用道具 举报

懒得打字嘛,点击右侧快捷回复 【右侧内容,后台自定义】
您需要登录后才可以回帖 登录 | 立即加入

本版积分规则

Archiver|小黑屋| 蓝光电影网 |网站地图

Copyright © 2021 Comsenz Inc. Powered by 蓝光电影网

蓝光电影网

本站内容由用户自主分享和转载自互联网,转载目的在于传递更多信息,并不代表本网赞同其观点和对其真实性负责。

如有侵权、违反国家法律政策行为,请联系我们,我们会第一时间及时清除和处理!

举报反馈邮箱:[email protected]

快速回复 返回顶部 返回列表