找回密码

蓝光电影网

查看: 14|回复: 0

[喜剧] 墨西哥人 The.Mexican.2001.1080p.BluRay.x264-PSYCHD 9.84GB

[复制链接]
蓝光币
515
发表于 2020-8-17 09:49:46 | 显示全部楼层 |阅读模式


◎译  名 墨西哥人 / The Mexican / 危险情人
◎片  名 The Mexican
◎年  代 2001
◎产  地 美国
◎类  别 笑剧 / 行动 / 恋爱 / 犯罪 / 冒险
◎语  言 英语 / 西班牙语
◎上映日期 2001-04-26
◎IMDb评分  6.1/10 from 101536 users
◎IMDb链接  https://www.imdb.com/title/tt0236493
◎豆瓣评分 7.0/10 from 7937 users
◎豆瓣链接 https://movie.douban.com/subject/1301888/
◎片  长 123 分钟
◎导  演 戈尔·维宾斯基 Gore Verbinski
◎编  剧 J.H. Wyman
◎主  演 布拉德·皮特 Brad Pitt
       朱莉娅·罗伯茨 Julia Roberts
       詹姆斯·甘多菲尼 James Gandolfini
       鲍勃·巴拉班 Bob Balaban
       J·K·西蒙斯 J.K. Simmons

◎标  签 BradPitt | 美国 | JuliaRoberts | 恋爱 | 布拉德·皮特 | 美国电影 | 朱莉娅·罗伯茨 | 剧情
◎简  介

  
  “墨西哥人”不是人,而是一把古玩手枪。附带在它身上有一个传闻,故事的悲剧结束,让这把枪沾上了凶恶的不祥之兆。每个持有它的人,城市遭来意外。
  现在,小混混杰瑞(布拉德·皮特 Brad Pitt饰)面临着决定:要末接过黑帮大佬的使命,远赴墨西哥把这支枪找返来;要末乖乖地听标致女友萨蔓莎(朱莉娅·罗伯茨 Julia Roberts饰)的话,和黑道隔离交往,做回一个光亮正大的人。固然,获咎黑帮无异于招灾肇事,杰瑞再三斟酌,还是决议把“墨西哥人”寻回,干完这桩工作就金盘洗手。
  露宿风餐的赶到墨西哥后,杰瑞在异乡履历着盘曲的寻枪进程。“墨西哥人”的奥秘魔咒也渐渐显现——萨蔓莎遭到了黑帮老迈的绑架,以此来威胁杰瑞务必把枪无缺带回。杰瑞的前路,面临着凶恶的黑帮势力、手枪的陈腐魔咒,更有恋爱的真理期待他发现。
  1. Video
  2. ID                                       : 1
  3. Format                                   : AVC
  4. Format/Info                              : Advanced Video Codec
  5. Format profile                           : [email protected]
  6. Format settings                          : CABAC / 5 Ref Frames
  7. Format settings, CABAC                   : Yes
  8. Format settings, Reference frames        : 5 frames
  9. Codec ID                                 : V_MPEG4/ISO/AVC
  10. Duration                                 : 2 h 3 min
  11. Bit rate                                 : 9 896 kb/s
  12. Width                                    : 1 920 pixels
  13. Height                                   : 832 pixels
  14. Display aspect ratio                     : 2.35:1
  15. Frame rate mode                          : Constant
  16. Frame rate                               : 23.976 (24000/1001/189150) FPS
  17. Color space                              : YUV
  18. Chroma subsampling                       : 4:2:0
  19. Bit depth                                : 8 bits
  20. Scan type                                : Progressive
  21. Bits/(Pixel*Frame)                       : 0.258
  22. Stream size                              : 8.34 GiB (85%)
  23. Writing library                          : x264 core 138 r2358 9e941d1
  24. Encoding settings                        : cabac=1 / ref=5 / deblock=1:-3:-3 / analyse=0x3:0x113 / me=umh / subme=8 / psy=1 / psy_rd=1.00:0.00 / mixed_ref=1 / me_range=16 / chroma_me=1 / trellis=1 / 8x8dct=1 / cqm=0 / deadzone=21,11 / fast_pskip=1 / chroma_qp_offset=-2 / threads=18 / lookahead_threads=3 / sliced_threads=0 / nr=0 / decimate=1 / interlaced=0 / bluray_compat=0 / constrained_intra=0 / bframes=3 / b_pyramid=2 / b_adapt=2 / b_bias=0 / direct=3 / weightb=1 / open_gop=0 / weightp=2 / keyint=240 / keyint_min=24 / scenecut=40 / intra_refresh=0 / rc_lookahead=50 / rc=2pass / mbtree=1 / bitrate=9896 / ratetol=1.0 / qcomp=0.60 / qpmin=0 / qpmax=69 / qpstep=4 / cplxblur=20.0 / qblur=0.5 / ip_ratio=1.40 / aq=1:1.00
  25. Language                                 : English
  26. Default                                  : Yes
  27. Forced                                   : No

  28. Audio
  29. ID                                       : 2
  30. Format                                   : DTS
  31. Format/Info                              : Digital Theater Systems
  32. Codec ID                                 : A_DTS
  33. Duration                                 : 2 h 3 min
  34. Bit rate mode                            : Constant
  35. Bit rate                                 : 1 509 kb/s
  36. Channel(s)                               : 6 channels
  37. Channel layout                           : C L R Ls Rs LFE
  38. Sampling rate                            : 48.0 kHz
  39. Frame rate                               : 93.750 FPS (512 SPF)
  40. Bit depth                                : 24 bits
  41. Compression mode                         : Lossy
  42. Stream size                              : 1.30 GiB (13%)
  43. Language                                 : English
  44. Default                                  : Yes
  45. Forced                                   : No

  46. Text
  47. ID                                       : 3
  48. Format                                   : UTF-8
  49. Codec ID                                 : S_TEXT/UTF8
  50. Codec ID/Info                            : UTF-8 Plain Text
  51. Language                                 : English
  52. Default                                  : No
  53. Forced                                   : No

  54. Menu
  55. 00:00:00.000                             : en:00:00:00.000
  56. 00:13:28.266                             : en:00:13:28.266
  57. 00:23:58.020                             : en:00:23:58.020
  58. 00:33:51.738                             : en:00:33:51.738
  59. 00:40:45.026                             : en:00:40:45.026
  60. 00:48:35.204                             : en:00:48:35.204
  61. 00:54:51.288                             : en:00:54:51.288
  62. 01:00:31.920                             : en:01:00:31.920
  63. 01:05:15.203                             : en:01:05:15.203
  64. 01:10:31.310                             : en:01:10:31.310
  65. 01:16:25.748                             : en:01:16:25.748
  66. 01:21:09.865                             : en:01:21:09.865
  67. 01:25:17.487                             : en:01:25:17.487
  68. 01:37:20.668                             : en:01:37:20.668
  69. 01:45:14.016                             : en:01:45:14.016
  70. 01:57:40.637                             : en:01:57:40.637
复制代码





                                       
                                       

                                       
                                       
                                       




回复

使用道具 举报

懒得打字嘛,点击右侧快捷回复 【右侧内容,后台自定义】
您需要登录后才可以回帖 登录 | 立即加入

本版积分规则

Archiver|小黑屋| 蓝光电影网 |网站地图

Copyright © 2021 Comsenz Inc. Powered by 蓝光电影网

蓝光电影网

本站内容由用户自主分享和转载自互联网,转载目的在于传递更多信息,并不代表本网赞同其观点和对其真实性负责。

如有侵权、违反国家法律政策行为,请联系我们,我们会第一时间及时清除和处理!

举报反馈邮箱:[email protected]

快速回复 返回顶部 返回列表