找回密码

蓝光电影网

查看: 17|回复: 0

[恐怖] 午夜人 Midnighters.2017.1080p.BluRay.x264-GETiT 4.28GB

[复制链接]
蓝光币
426
发表于 2021-2-3 19:43:46 | 显示全部楼层 |阅读模式


◎译  名 半夜人/Revelers/半夜杀机(台)
◎片  名 Midnighters
◎年  代 2017
◎产  地 美国
◎类  别 可骇
◎语  言 英语
◎上映日期 2017-06-19(洛杉矶电影节)
◎IMDb评分  5.4/10 from 1593 users
◎IMDb链接  https://www.imdb.com/title/tt5737582/
◎豆瓣评分 5.2/10 from 522 users
◎豆瓣链接 https://movie.douban.com/subject/27069289/
◎片  长 94分钟
◎导  演 朱利叶斯·拉姆齐 Julius Ramsay
◎编  剧 阿尔斯通·拉姆齐 Alston Ramsay
◎主  演 艾丽克斯·埃索 Alex Essoe
       佩拉·哈莉-贾德林 Perla Haney-Jardine
       迪伦·麦蒂 Dylan McTee
       瓦德·霍尔顿 Ward Horton
       安德鲁·罗森博格 Andrew Rothenberg
       约瑟夫·李·安德森 Joseph Lee Anderson
       K·C·法尔达斯 K.C. Faldasz
       威廉·布鲁姆菲尔德 William Bloomfield
       戴维·斯帕多拉 David Spadora
       马修·迈尔斯 Matt Myers
◎标  签 惊悚 | 悬疑 | 犯罪 | 美国 | 人性 | 可骇 | 2017 | 致敬希区柯克
◎简  介


  新年半夜,杰夫(Dylan McTee 饰)和琳德赛(艾丽克斯·埃索 Alex Essoe 饰)这对夫妻驱车行驶在黝黑的路上。两人只顾谈情双爱,没有认真看着前方,成果狠狠装上了一位陌生人。他们将伤者带上车,预备拉到比来的医院治疗,但是对方却在半路断了气。经过一番心里挣扎,他们将死者带回家中。杰夫发现汽车派司丢在了现场,因而又驱车赶了曩昔,留妻子一人在家。就在这时,琳德赛的妹妹汉娜(佩拉·哈莉-贾德林 Perla Haney-Jardine 饰)回抵家中,而本活该去的汉子忽然活了过来,向汉娜倡议进犯。紊乱当中,汉娜开枪射杀对方。
  
  工作似乎变得越来越复杂,杰夫尝试弄清对方的身份,成果却发现……
  1. Video
  2. ID                                       : 1
  3. Format                                   : AVC
  4. Format/Info                              : Advanced Video Codec
  5. Format profile                           : [email protected]
  6. Format settings                          : CABAC / 4 Ref Frames
  7. Format settings, CABAC                   : Yes
  8. Format settings, Reference frames        : 4 frames
  9. Codec ID                                 : V_MPEG4/ISO/AVC
  10. Duration                                 : 1 h 33 min
  11. Bit rate                                 : 4 521 kb/s
  12. Width                                    : 1 920 pixels
  13. Height                                   : 1 080 pixels
  14. Display aspect ratio                     : 16:9
  15. Frame rate mode                          : Constant
  16. Frame rate                               : 23.976 (24000/1001/189150) FPS
  17. Color space                              : YUV
  18. Chroma subsampling                       : 4:2:0
  19. Bit depth                                : 8 bits
  20. Scan type                                : Progressive
  21. Bits/(Pixel*Frame)                       : 0.091
  22. Stream size                              : 2.95 GiB (69%)
  23. Writing library                          : x264 core 161 r3018 db0d417
  24. Encoding settings                        : cabac=1 / ref=4 / deblock=1:-3:-3 / analyse=0x3:0x133 / me=umh / subme=9 / psy=1 / psy_rd=1.00:0.00 / mixed_ref=1 / me_range=16 / chroma_me=1 / trellis=2 / 8x8dct=1 / cqm=0 / deadzone=21,11 / fast_pskip=1 / chroma_qp_offset=-2 / threads=9 / lookahead_threads=1 / sliced_threads=0 / nr=0 / decimate=1 / interlaced=0 / bluray_compat=0 / constrained_intra=0 / bframes=3 / b_pyramid=2 / b_adapt=2 / b_bias=0 / direct=3 / weightb=1 / open_gop=0 / weightp=2 / keyint=250 / keyint_min=23 / scenecut=40 / intra_refresh=0 / rc_lookahead=60 / rc=crf / mbtree=1 / crf=17.0 / qcomp=0.60 / qpmin=0 / qpmax=69 / qpstep=4 / ip_ratio=1.40 / aq=3:0.80
  25. Language                                 : English
  26. Default                                  : Yes
  27. Forced                                   : No
  28. Color range                              : Limited
  29. Matrix coefficients                      : BT.709

  30. Audio
  31. ID                                       : 2
  32. Format                                   : DTS XBR
  33. Format/Info                              : Digital Theater Systems
  34. Commercial name                          : DTS-HD High Resolution Audio
  35. Codec ID                                 : A_DTS
  36. Duration                                 : 1 h 33 min
  37. Bit rate mode                            : Constant
  38. Bit rate                                 : 2 046 kb/s
  39. Channel(s)                               : 6 channels
  40. Channel layout                           : C L R Ls Rs LFE
  41. Sampling rate                            : 48.0 kHz
  42. Frame rate                               : 93.750 FPS (512 SPF)
  43. Bit depth                                : 16 bits
  44. Compression mode                         : Lossy
  45. Stream size                              : 1.33 GiB (31%)
  46. Title                                    : DTS-HD
  47. Language                                 : English
  48. Default                                  : Yes
  49. Forced                                   : No

  50. Menu
  51. 00:00:00.000                             : en:00:00:00.000
  52. 00:06:33.977                             : en:00:06:33.977
  53. 00:13:27.473                             : en:00:13:27.473
  54. 00:20:08.499                             : en:00:20:08.499
  55. 00:29:17.756                             : en:00:29:17.756
  56. 00:38:15.752                             : en:00:38:15.752
  57. 00:48:27.279                             : en:00:48:27.279
  58. 00:56:05.237                             : en:00:56:05.237
  59. 01:06:19.559                             : en:01:06:19.559
  60. 01:15:24.437                             : en:01:15:24.437
  61. 01:22:51.550                             : en:01:22:51.550
  62. 01:30:36.306                             : en:01:30:36.306
复制代码




                                       
                                       

                                       
                                       
                                       




回复

使用道具 举报

懒得打字嘛,点击右侧快捷回复 【右侧内容,后台自定义】
您需要登录后才可以回帖 登录 | 立即加入

本版积分规则

Archiver|小黑屋| 蓝光电影网 |网站地图

Copyright © 2021 Comsenz Inc. Powered by 蓝光电影网

蓝光电影网

本站内容由用户自主分享和转载自互联网,转载目的在于传递更多信息,并不代表本网赞同其观点和对其真实性负责。

如有侵权、违反国家法律政策行为,请联系我们,我们会第一时间及时清除和处理!

举报反馈邮箱:[email protected]

快速回复 返回顶部 返回列表