找回密码

蓝光电影网

查看: 30|回复: 0

[科幻] 童梦失魂夜 The.City.of.Lost.Children.1995.1080p.BluRay.x264-NODLABS 8.74GB

[复制链接]
蓝光币
382
发表于 2020-12-17 09:37:52 | 显示全部楼层 |阅读模式
[img][/img]

◎译  名 童梦失魂夜/The City of Lost Children/惊奇狂想曲/迷儿城
◎片  名 La cité des enfants perdus
◎年  代 1995
◎产  地 法国,德国,西班牙,比利时,美国
◎类  别 科幻 / 奇异
◎语  言 法语,粤语
◎上映日期 1995-05-17
◎IMDb评分  7.5/10 from 64521 users
◎IMDb链接  https://www.imdb.com/title/tt0112682/
◎豆瓣评分 7.9/10 from 8568 users
◎豆瓣链接 https://movie.douban.com/subject/1306450/
◎片  长 112 分钟
◎导  演 马克·卡罗 Marc Caro / 让-皮埃尔·热内 Jean-Pierre Jeunet
◎编  剧 吉勒·阿德里安 Gilles Adrien / 让-皮埃尔·热内 Jean-Pierre Jeunet / 马克·卡罗 Marc Caro / 纪尧姆·洛朗 Guillaume Laurant
◎主  演 朗·普尔曼 Ron Perlman
       丹尼尔·埃米尔福克 Daniel Emilfork
       嘉蒂斯·维泰特 Judith Vittet
       多米尼克·皮侬 Dominique Pinon
       让-克洛德·德雷菲斯 Jean-Claude Dreyfus
       吉纳维芙波奈特 Geneviève Brunet
       奥迪勒马勒特 Odile Mallet
       塞尔日·梅兰 Serge Merlin
       吕菲斯 Rufus
       迪基·奥尔加多 Ticky Holgado
       皮埃尔昆汀范胥 Pierre-Quentin Faesch
       让-路易·特兰蒂尼昂 Jean-Louis Trintignant
       马修·卡索维茨 Mathieu Kassovitz
◎标  签 法国 | 让-皮埃尔·热内 | 奇异 | 科幻 | 法国电影 | 1995 | 电影 | Jean-PierreJeunet
◎简  介


  故事发生在一个雾气氤氲的奇异城市中,怪博士格勒(丹尼尔·埃米尔福克 Daniel Emilfork 饰)因没法做梦而饱受熬煎,疾苦的他惟有指示手下的克隆人(多米尼克·皮诺 Dominique Pinon 饰)绑架城中的孩童,经过一个怪异的机械来窃取他们的梦乡。可是,一切的美梦到了他这儿,均酿成了噩梦。阿一(朗·普尔曼 Ron Perlman 饰)天生庞大强健,一日,相依为命的弟弟被怪博士掳走,善良的他为了救回弟弟,联手孤儿盗窃团的成员美蒂(嘉蒂斯·维泰特 Judith Vittet 饰),同怪博士展开了一场斗智斗勇的殊死奋斗。
  
  导演让-皮埃尔·热内 (Jean-Pierre Jeunet)用他一向天马行空的设想力,为我们修建了一个正邪混杂但善良不灭的富丽梦乡。
◎获奖情况
  第48届戛纳电影节 ?(1995)
  主比赛单元金棕榈奖(提名) 马克·卡罗?/?让-皮埃尔·热内
  1. Video
  2. ID                                       : 1
  3. Format                                   : AVC
  4. Format/Info                              : Advanced Video Codec
  5. Format profile                           : [email protected]
  6. Format settings                          : CABAC / 4 Ref Frames
  7. Format settings, CABAC                   : Yes
  8. Format settings, Reference frames        : 4 frames
  9. Codec ID                                 : V_MPEG4/ISO/AVC
  10. Duration                                 : 1 h 52 min
  11. Bit rate                                 : 9 610 kb/s
  12. Width                                    : 1 920 pixels
  13. Height                                   : 1 040 pixels
  14. Display aspect ratio                     : 1.85:1
  15. Frame rate mode                          : Constant
  16. Frame rate                               : 23.976 (24000/1001/189150) FPS
  17. Color space                              : YUV
  18. Chroma subsampling                       : 4:2:0
  19. Bit depth                                : 8 bits
  20. Scan type                                : Progressive
  21. Bits/(Pixel*Frame)                       : 0.201
  22. Stream size                              : 7.38 GiB (84%)
  23. Writing library                          : x264 core 142 r2431 ac76440
  24. Encoding settings                        : cabac=1 / ref=4 / deblock=1:-3:-3 / analyse=0x3:0x113 / me=umh / subme=8 / psy=1 / psy_rd=1.00:0.00 / mixed_ref=1 / me_range=16 / chroma_me=1 / trellis=1 / 8x8dct=1 / cqm=0 / deadzone=21,11 / fast_pskip=1 / chroma_qp_offset=-2 / threads=18 / lookahead_threads=3 / sliced_threads=0 / nr=0 / decimate=1 / interlaced=0 / bluray_compat=0 / constrained_intra=0 / bframes=3 / b_pyramid=2 / b_adapt=2 / b_bias=0 / direct=3 / weightb=1 / open_gop=0 / weightp=2 / keyint=240 / keyint_min=24 / scenecut=40 / intra_refresh=0 / rc_lookahead=50 / rc=2pass / mbtree=1 / bitrate=9610 / ratetol=1.0 / qcomp=0.60 / qpmin=0 / qpmax=69 / qpstep=4 / cplxblur=20.0 / qblur=0.5 / ip_ratio=1.40 / aq=1:1.00
  25. Language                                 : English
  26. Default                                  : Yes
  27. Forced                                   : No

  28. Audio
  29. ID                                       : 2
  30. Format                                   : DTS
  31. Format/Info                              : Digital Theater Systems
  32. Codec ID                                 : A_DTS
  33. Duration                                 : 1 h 52 min
  34. Bit rate mode                            : Constant
  35. Bit rate                                 : 1 509 kb/s
  36. Channel(s)                               : 6 channels
  37. ChannelLayout_Original                   : C L R Ls Rs LFE
  38. Sampling rate                            : 48.0 kHz
  39. Frame rate                               : 93.750 FPS (512 SPF)
  40. Bit depth                                : 24 bits
  41. Compression mode                         : Lossy
  42. Stream size                              : 1.19 GiB (14%)
  43. Language                                 : French
  44. Default                                  : Yes
  45. Forced                                   : No

  46. Text
  47. ID                                       : 3
  48. Format                                   : UTF-8
  49. Codec ID                                 : S_TEXT/UTF8
  50. Codec ID/Info                            : UTF-8 Plain Text
  51. Language                                 : English
  52. Default                                  : Yes
  53. Forced                                   : Yes

  54. Menu
  55. 00:00:00.000                             : en:00:00:00.000
  56. 00:04:38.653                             : en:00:04:38.653
  57. 00:06:55.332                             : en:00:06:55.332
  58. 00:13:10.498                             : en:00:13:10.498
  59. 00:15:19.335                             : en:00:15:19.335
  60. 00:17:39.141                             : en:00:17:39.141
  61. 00:19:19.575                             : en:00:19:19.575
  62. 00:23:44.882                             : en:00:23:44.882
  63. 00:26:26.376                             : en:00:26:26.376
  64. 00:33:08.486                             : en:00:33:08.486
  65. 00:38:31.768                             : en:00:38:31.768
  66. 00:41:03.878                             : en:00:41:03.878
  67. 00:43:25.436                             : en:00:43:25.436
  68. 00:50:16.180                             : en:00:50:16.180
  69. 00:55:27.282                             : en:00:55:27.282
  70. 00:59:26.521                             : en:00:59:26.521
  71. 01:02:28.912                             : en:01:02:28.912
  72. 01:04:50.678                             : en:01:04:50.678
  73. 01:09:35.713                             : en:01:09:35.713
  74. 01:10:19.549                             : en:01:10:19.549
  75. 01:12:39.689                             : en:01:12:39.689
  76. 01:14:52.029                             : en:01:14:52.029
  77. 01:16:45.601                             : en:01:16:45.601
  78. 01:19:13.540                             : en:01:19:13.540
  79. 01:24:07.334                             : en:01:24:07.334
  80. 01:35:03.406                             : en:01:35:03.406
  81. 01:36:28.825                             : en:01:36:28.825
  82. 01:43:26.325                             : en:01:43:26.325
复制代码



                                       
                                       

                                       
                                       
                                       




回复

使用道具 举报

懒得打字嘛,点击右侧快捷回复 【右侧内容,后台自定义】
您需要登录后才可以回帖 登录 | 立即加入

本版积分规则

Archiver|小黑屋| 蓝光电影网 |网站地图

Copyright © 2021 Comsenz Inc. Powered by 蓝光电影网

蓝光电影网

本站内容由用户自主分享和转载自互联网,转载目的在于传递更多信息,并不代表本网赞同其观点和对其真实性负责。

如有侵权、违反国家法律政策行为,请联系我们,我们会第一时间及时清除和处理!

举报反馈邮箱:[email protected]

快速回复 返回顶部 返回列表