找回密码

蓝光电影网

查看: 13|回复: 0

[惊悚] 杀手的肖像2/亨利.波特莱特:连环杀手 2 Henry.II.Portrait.of.a.Serial.Killer.1996.720p.BluRay.x264-GUACAMOLE 4.79GB

[复制链接]
蓝光币
382
发表于 2021-4-7 21:36:54 | 显示全部楼层 |阅读模式


◎译  名 杀手的肖像2/亨利.波特莱特:连环杀手 2/持续杀人犯的平生 2
◎片  名 Henry: Portrait of a Serial Killer, Part 2
◎年  代 1996
◎产  地 美国
◎类  别 惊悚 / 可骇 / 犯罪
◎语  言 英语
◎上映日期 1998-06-18
◎IMDb评分  4.9/10 from 888 users
◎IMDb链接  https://www.imdb.com/title/tt0116516/
◎豆瓣评分 /10 from 0 users
◎豆瓣链接 https://movie.douban.com/subject/1308291/
◎片  长 84 分钟
◎导  演 查克·帕莱罗 Chuck Parello
◎编  剧 查克·帕莱罗 Chuck Parello
◎主  演 尼尔·吉恩托利 Neil Giuntoli
       佩内洛普·米尔福 Penelope Milford
       凯特·沃什 Kate Walsh
       Kevin Sorenson
       Sam Saletta
       Jim Cantafio
       Kam Heskin
       Rich Wilkie
◎标  签 美国 | 美国电影 | 犯罪 | 连环杀手 | 可骇电影 | 黑色 | 罪 | 我的标签
◎简  介


  Henry has wondered into a small town looking for work and a place to stay. He gets a job delivering and cleaning porto-potties and moves in with a co-worker until he gets his feet off the ground. Henry and his new friend soon start to kill.
  1. Video
  2. ID                                       : 1
  3. Format                                   : AVC
  4. Format/Info                              : Advanced Video Codec
  5. Format profile                           : [email protected]
  6. Format settings                          : CABAC / 4 Ref Frames
  7. Format settings, CABAC                   : Yes
  8. Format settings, Reference frames        : 4 frames
  9. Codec ID                                 : V_MPEG4/ISO/AVC
  10. Duration                                 : 1 h 24 min
  11. Bit rate                                 : 7 313 kb/s
  12. Width                                    : 1 280 pixels
  13. Height                                   : 720 pixels
  14. Display aspect ratio                     : 16:9
  15. Frame rate mode                          : Constant
  16. Frame rate                               : 23.976 (24000/1001/189150) FPS
  17. Color space                              : YUV
  18. Chroma subsampling                       : 4:2:0
  19. Bit depth                                : 8 bits
  20. Scan type                                : Progressive
  21. Bits/(Pixel*Frame)                       : 0.331
  22. Stream size                              : 4.34 GiB (90%)
  23. Writing library                          : x264 core 161 r3048 b86ae3c
  24. Encoding settings                        : cabac=1 / ref=4 / deblock=1:-3:-3 / analyse=0x3:0x133 / me=umh / subme=9 / psy=1 / psy_rd=1.00:0.00 / mixed_ref=1 / me_range=16 / chroma_me=1 / trellis=2 / 8x8dct=1 / cqm=0 / deadzone=21,11 / fast_pskip=0 / chroma_qp_offset=-2 / threads=22 / lookahead_threads=1 / sliced_threads=0 / nr=0 / decimate=1 / interlaced=0 / bluray_compat=0 / constrained_intra=0 / bframes=3 / b_pyramid=2 / b_adapt=2 / b_bias=0 / direct=3 / weightb=1 / open_gop=0 / weightp=2 / keyint=250 / keyint_min=23 / scenecut=40 / intra_refresh=0 / rc_lookahead=60 / rc=crf / mbtree=1 / crf=21.0 / qcomp=0.60 / qpmin=0 / qpmax=69 / qpstep=4 / ip_ratio=1.40 / aq=3:0.60
  25. Default                                  : Yes
  26. Forced                                   : No
  27. Color range                              : Limited
  28. Matrix coefficients                      : BT.709

  29. Audio #1
  30. ID                                       : 2
  31. Format                                   : AC-3
  32. Format/Info                              : Audio Coding 3
  33. Commercial name                          : Dolby Digital
  34. Codec ID                                 : A_AC3
  35. Duration                                 : 1 h 24 min
  36. Bit rate mode                            : Constant
  37. Bit rate                                 : 640 kb/s
  38. Channel(s)                               : 6 channels
  39. Channel layout                           : L R C LFE Ls Rs
  40. Sampling rate                            : 48.0 kHz
  41. Frame rate                               : 31.250 FPS (1536 SPF)
  42. Compression mode                         : Lossy
  43. Stream size                              : 388 MiB (8%)
  44. Language                                 : English
  45. Service kind                             : Complete Main
  46. Default                                  : Yes
  47. Forced                                   : No

  48. Audio #2
  49. ID                                       : 3
  50. Format                                   : AAC LC
  51. Format/Info                              : Advanced Audio Codec Low Complexity
  52. Codec ID                                 : A_AAC-2
  53. Duration                                 : 1 h 24 min
  54. Bit rate                                 : 118 kb/s
  55. Channel(s)                               : 2 channels
  56. Channel layout                           : L R
  57. Sampling rate                            : 48.0 kHz
  58. Frame rate                               : 46.875 FPS (1024 SPF)
  59. Compression mode                         : Lossy
  60. Delay relative to video                  : 9 ms
  61. Stream size                              : 71.5 MiB (1%)
  62. Title                                    : Commentary
  63. Language                                 : English
  64. Default                                  : No
  65. Forced                                   : No

  66. Text #1
  67. ID                                       : 4
  68. Format                                   : PGS
  69. Muxing mode                              : zlib
  70. Codec ID                                 : S_HDMV/PGS
  71. Codec ID/Info                            : Picture based subtitle format used on BDs/HD-DVDs
  72. Duration                                 : 1 h 22 min
  73. Bit rate                                 : 22.6 kb/s
  74. Count of elements                        : 1176
  75. Stream size                              : 13.4 MiB (0%)
  76. Title                                    : Vobsubs
  77. Language                                 : English
  78. Default                                  : No
  79. Forced                                   : No

  80. Text #2
  81. ID                                       : 5
  82. Format                                   : PGS
  83. Muxing mode                              : zlib
  84. Codec ID                                 : S_HDMV/PGS
  85. Codec ID/Info                            : Picture based subtitle format used on BDs/HD-DVDs
  86. Duration                                 : 1 h 22 min
  87. Bit rate                                 : 25.4 kb/s
  88. Count of elements                        : 1306
  89. Stream size                              : 15.0 MiB (0%)
  90. Title                                    : Vobsubs
  91. Language                                 : German
  92. Default                                  : No
  93. Forced                                   : No

  94. Text #3
  95. ID                                       : 6
  96. Format                                   : PGS
  97. Muxing mode                              : zlib
  98. Codec ID                                 : S_HDMV/PGS
  99. Codec ID/Info                            : Picture based subtitle format used on BDs/HD-DVDs
  100. Duration                                 : 23 min 33 s
  101. Bit rate                                 : 768 b/s
  102. Count of elements                        : 11
  103. Stream size                              : 133 KiB (0%)
  104. Title                                    : Forced
  105. Language                                 : German
  106. Default                                  : No
  107. Forced                                   : No

  108. Menu
  109. 00:00:00.000                             : en:00:00:00.000
  110. 00:06:41.234                             : en:00:06:41.234
  111. 00:13:21.217                             : en:00:13:21.217
  112. 00:21:10.311                             : en:00:21:10.311
  113. 00:28:04.766                             : en:00:28:04.766
  114. 00:35:36.426                             : en:00:35:36.426
  115. 00:42:14.991                             : en:00:42:14.991
  116. 00:48:43.170                             : en:00:48:43.170
  117. 00:55:45.425                             : en:00:55:45.425
  118. 01:03:37.939                             : en:01:03:37.939
  119. 01:09:44.222                             : en:01:09:44.222
  120. 01:17:05.788                             : en:01:17:05.788
复制代码




                                       
                                       

                                       
                                       
                                       




回复

使用道具 举报

懒得打字嘛,点击右侧快捷回复 【右侧内容,后台自定义】
您需要登录后才可以回帖 登录 | 立即加入

本版积分规则

Archiver|小黑屋| 蓝光电影网 |网站地图

Copyright © 2021 Comsenz Inc. Powered by 蓝光电影网

蓝光电影网

本站内容由用户自主分享和转载自互联网,转载目的在于传递更多信息,并不代表本网赞同其观点和对其真实性负责。

如有侵权、违反国家法律政策行为,请联系我们,我们会第一时间及时清除和处理!

举报反馈邮箱:[email protected]

快速回复 返回顶部 返回列表