找回密码

蓝光电影网

查看: 15|回复: 0

[动作] 神挡杀神 Beckman.2020.1080p.BluRay.x264.DTS-FGT 8.30GB

[复制链接]
蓝光币
386
发表于 2021-6-3 08:57:28 | 显示全部楼层 |阅读模式
[img][/img]

◎译  名 神挡杀神
◎片  名 Beckman
◎年  代 2020
◎产  地 美国
◎类  别 行动
◎语  言 英语
◎上映日期 2020-09-22(美国)
◎豆瓣评分 /10 from 0 users
◎豆瓣链接 https://movie.douban.com/subject/35209663/
◎片  长 90分钟
◎主  演 戴维·怀特 David A.R. White
       威廉·鲍德温 William Baldwin
       波特·杨 Burt Young
       杰夫·法赫 Jeff Fahey
       布莱特顿·沙比诺 Brighton Sharbino
       琪拉·里德 Kira Reed
       Danielle Moinet
       凯文·道恩斯 Kevin Downes
       安娜杰林斯基 Anna Zielinski
       大卫·安东尼·布廖内 David Anthony Buglione
       文森·德·保罗 Vincent De Paul
       兰德尔·瑞德 Randal Reeder
       萨曼莎·科尔米耶 Samantha Cormier
       Kelly Heyer
       小伊萨克·C.辛格尔顿 Isaac C. Singleton Jr.
◎标  签 美国 | 行动 | Beckman | 2020 | (2020)
◎简  介


  A contract killer, becomes the reverend of a LA church, until a cult leader and his minions kidnap his daughter. Blinded by vengeance, he cuts a bloody path across the city. The only thing that can stop him is his newfound faith.
  1. Video
  2. ID                                       : 1
  3. Format                                   : AVC
  4. Format/Info                              : Advanced Video Codec
  5. Format profile                           : [email protected]
  6. Format settings                          : CABAC / 4 Ref Frames
  7. Format settings, CABAC                   : Yes
  8. Format settings, Reference frames        : 4 frames
  9. Codec ID                                 : V_MPEG4/ISO/AVC
  10. Duration                                 : 1 h 36 min
  11. Bit rate                                 : 11.5 Mb/s
  12. Width                                    : 1 920 pixels
  13. Height                                   : 816 pixels
  14. Display aspect ratio                     : 2.35:1
  15. Frame rate mode                          : Constant
  16. Frame rate                               : 23.976 (24000/1001/189150) FPS
  17. Color space                              : YUV
  18. Chroma subsampling                       : 4:2:0
  19. Bit depth                                : 8 bits
  20. Scan type                                : Progressive
  21. Bits/(Pixel*Frame)                       : 0.306
  22. Stream size                              : 7.78 GiB (94%)
  23. Writing library                          : x264 core 148 r2748 97eaef2
  24. Encoding settings                        : cabac=1 / ref=4 / deblock=1:-2:-2 / analyse=0x3:0x113 / me=umh / subme=9 / psy=1 / psy_rd=1.00:0.15 / mixed_ref=1 / me_range=16 / chroma_me=1 / trellis=2 / 8x8dct=1 / cqm=0 / deadzone=21,11 / fast_pskip=1 / chroma_qp_offset=-3 / threads=72 / lookahead_threads=3 / sliced_threads=0 / nr=0 / decimate=1 / interlaced=0 / bluray_compat=0 / constrained_intra=0 / bframes=3 / b_pyramid=2 / b_adapt=1 / b_bias=0 / direct=3 / weightb=1 / open_gop=0 / weightp=2 / keyint=250 / keyint_min=25 / scenecut=40 / intra_refresh=0 / rc_lookahead=50 / rc=2pass / mbtree=1 / bitrate=11500 / ratetol=1.0 / qcomp=0.60 / qpmin=0 / qpmax=69 / qpstep=4 / cplxblur=20.0 / qblur=0.5 / vbv_maxrate=31250 / vbv_bufsize=31250 / nal_hrd=none / filler=0 / ip_ratio=1.40 / aq=1:1.00
  25. Language                                 : English
  26. Default                                  : Yes
  27. Forced                                   : No
  28. Audio
  29. ID                                       : 2
  30. ID in the original source medium         : 4353 (0x1101)
  31. Format                                   : DTS
  32. Format/Info                              : Digital Theater Systems
  33. Codec ID                                 : A_DTS
  34. Duration                                 : 1 h 36 min
  35. Bit rate mode                            : Constant
  36. Bit rate                                 : 768 kb/s
  37. Channel(s)                               : 6 channels
  38. Channel layout                           : C L R Ls Rs LFE
  39. Sampling rate                            : 48.0 kHz
  40. Frame rate                               : 93.750 FPS (512 SPF)
  41. Bit depth                                : 16 bits
  42. Compression mode                         : Lossy
  43. Stream size                              : 532 MiB (6%)
  44. Title                                    : Surround 5.1
  45. Language                                 : English
  46. Default                                  : No
  47. Forced                                   : No
  48. Original source medium                   : Blu-ray
  49. Text
  50. ID                                       : 3
  51. Format                                   : UTF-8
  52. Codec ID                                 : S_TEXT/UTF8
  53. Codec ID/Info                            : UTF-8 Plain Text
  54. Duration                                 : 1 h 32 min
  55. Bit rate                                 : 43 b/s
  56. Count of elements                        : 1060
  57. Stream size                              : 29.5 KiB (0%)
  58. Language                                 : English
  59. Default                                  : Yes
  60. Forced                                   : No
  61. Menu
  62. 00:00:00.000                             : Chapter 01
  63. 00:08:57.620                             : Chapter 02
  64. 00:18:21.266                             : Chapter 03
  65. 00:28:35.171                             : Chapter 04
  66. 00:36:24.015                             : Chapter 05
  67. 00:42:12.279                             : Chapter 06
  68. 00:51:12.819                             : Chapter 07
  69. 00:59:38.950                             : Chapter 08
  70. 01:04:47.008                             : Chapter 09
  71. 01:16:00.847                             : Chapter 10
  72. 01:24:41.451                             : Chapter 11
  73. 01:33:19.218                             : Chapter 12
复制代码




                                       
                                       

                                       
                                       
                                       




回复

使用道具 举报

懒得打字嘛,点击右侧快捷回复 【右侧内容,后台自定义】
您需要登录后才可以回帖 登录 | 立即加入

本版积分规则

Archiver|小黑屋| 蓝光电影网 |网站地图

Copyright © 2021 Comsenz Inc. Powered by 蓝光电影网

蓝光电影网

本站内容由用户自主分享和转载自互联网,转载目的在于传递更多信息,并不代表本网赞同其观点和对其真实性负责。

如有侵权、违反国家法律政策行为,请联系我们,我们会第一时间及时清除和处理!

举报反馈邮箱:[email protected]

快速回复 返回顶部 返回列表