找回密码

蓝光电影网

查看: 11|回复: 0

[科幻] 大怪兽加美拉 Gamera.The.Giant.Monster.1965.JAPANESE.1080p.BluRay.x264.FLAC.2.0-TRAND 6.48GB

[复制链接]
蓝光币
386
发表于 2020-12-14 09:15:54 | 显示全部楼层 |阅读模式
[img][/img]

◎译  名 大怪兽加美拉
◎片  名 大怪獣ガメラ
◎年  代 1965
◎产  地 日本
◎类  别 科幻
◎语  言 日语
◎上映日期 1965-11-26
◎IMDb评分  5.1/10 from 2683 users
◎IMDb链接  https://www.imdb.com/title/tt0059080/
◎豆瓣评分 6.5/10 from 73 users
◎豆瓣链接 https://movie.douban.com/subject/2081216/
◎片  长 Japan: 80 分钟
◎导  演 汤浅宪明 Noriaki Yuasa
◎编  剧 高桥二三 Nisan Takahashi
◎主  演 船越英二 Eiji Funakoshi
       北原义郎 Yoshir? Kitahara
       浜村淳 Jun Hamamura
       大山健二 Kenji ?yama
       吉田义夫 Yoshio Yoshida
       左卜全 Bokuzen Hidari
       村田扶实子 Fumiko Murata
       大叶健二 Kenji Ohba
◎标  签 特摄 | 科幻 | 怪兽 | 日本 | 电影 | 日本电影 | 典范 | 1965
◎简  介


  大映が初めて手掛けた、1965年建造の本格怪獣映画『ガメラ』シリーズ第1作。監督は、湯浅憲明。北極海上で原爆を積んだ国籍不明機が米軍機によって撃墜され、氷山に墜落した。このため、積んでいた原爆は爆発、氷山に閉じ込められていたエスキモーの伝説の怪獣ガメラが蘇った。庞大な亀怪獣ガメラはその後姿を消し、入れ替わるかのように天下中で謎の空飛ぶ円盤が目撃される。人々の関心が空飛ぶ円盤に移り、ガメラのことが忘れられた頃、再びガメラが北海道にその姿を現した。自衛隊の作戦で仰向けにひっくり返されたガメラ。起き上がることの出来ないガメラに、人々は勝利を確信するが???。
  1. Video
  2. ID                                       : 1
  3. Format                                   : AVC
  4. Format/Info                              : Advanced Video Codec
  5. Format profile                           : [email protected]
  6. Format settings                          : CABAC / 5 Ref Frames
  7. Format settings, CABAC                   : Yes
  8. Format settings, Reference frames        : 5 frames
  9. Codec ID                                 : V_MPEG4/ISO/AVC
  10. Duration                                 : 1 h 18 min
  11. Bit rate                                 : 11.3 Mb/s
  12. Width                                    : 1 854 pixels
  13. Height                                   : 812 pixels
  14. Display aspect ratio                     : 2.25:1
  15. Frame rate mode                          : Constant
  16. Frame rate                               : 23.976 (24000/1001/189150) FPS
  17. Color space                              : YUV
  18. Chroma subsampling                       : 4:2:0
  19. Bit depth                                : 8 bits
  20. Scan type                                : Progressive
  21. Bits/(Pixel*Frame)                       : 0.314
  22. Stream size                              : 6.22 GiB (96%)
  23. Title                                    : Source: Daikaiju Gamera AKA The Giant Monster Gamera 1965 1080i BluRay Remux AVC FLAC2.0 COMM-KESH
  24. Writing library                          : x264 core 160 r3011 cde9a93
  25. Encoding settings                        : cabac=1 / ref=5 / deblock=1:-3:-3 / analyse=0x3:0x133 / me=umh / subme=10 / psy=1 / psy_rd=1.00:0.00 / mixed_ref=1 / me_range=24 / chroma_me=1 / trellis=2 / 8x8dct=1 / cqm=0 / deadzone=21,11 / fast_pskip=0 / chroma_qp_offset=-4 / threads=18 / lookahead_threads=4 / sliced_threads=0 / nr=0 / decimate=0 / interlaced=0 / bluray_compat=0 / constrained_intra=0 / bframes=12 / b_pyramid=2 / b_adapt=2 / b_bias=0 / direct=3 / weightb=1 / open_gop=0 / weightp=2 / keyint=240 / keyint_min=24 / scenecut=40 / intra_refresh=0 / rc_lookahead=60 / rc=crf / mbtree=0 / crf=24.4 / qcomp=0.65 / qpmin=0 / qpmax=69 / qpstep=4 / vbv_maxrate=62500 / vbv_bufsize=78125 / crf_max=0.0 / nal_hrd=none / filler=0 / ip_ratio=1.40 / pb_ratio=1.30 / aq=2:1.00
  26. Default                                  : Yes
  27. Forced                                   : No
  28. Color range                              : Limited
  29. Color primaries                          : BT.709
  30. Transfer characteristics                 : BT.709
  31. Matrix coefficients                      : BT.709
  32. Audio #1
  33. ID                                       : 2
  34. Format                                   : FLAC
  35. Format/Info                              : Free Lossless Audio Codec
  36. Codec ID                                 : A_FLAC
  37. Duration                                 : 1 h 18 min
  38. Bit rate mode                            : Variable
  39. Bit rate                                 : 353 kb/s
  40. Channel(s)                               : 2 channels
  41. Channel layout                           : L R
  42. Sampling rate                            : 48.0 kHz
  43. Frame rate                               : 11.719 FPS (4096 SPF)
  44. Bit depth                                : 16 bits
  45. Compression mode                         : Lossless
  46. Stream size                              : 198 MiB (3%)
  47. Writing library                          : libFLAC 1.3.0 (UTC 2013-05-26)
  48. Language                                 : Japanese
  49. Default                                  : Yes
  50. Forced                                   : No
  51. Audio #2
  52. ID                                       : 3
  53. Format                                   : AC-3
  54. Format/Info                              : Audio Coding 3
  55. Commercial name                          : Dolby Digital
  56. Codec ID                                 : A_AC3
  57. Duration                                 : 1 h 18 min
  58. Bit rate mode                            : Constant
  59. Bit rate                                 : 112 kb/s
  60. Channel(s)                               : 1 channel
  61. Channel layout                           : C
  62. Sampling rate                            : 48.0 kHz
  63. Frame rate                               : 31.250 FPS (1536 SPF)
  64. Compression mode                         : Lossy
  65. Stream size                              : 63.0 MiB (1%)
  66. Title                                    : Commentary by August Ragone, author of Eiji Tsuburaya: Master of Monsters
  67. Language                                 : English
  68. Service kind                             : Complete Main
  69. Default                                  : No
  70. Forced                                   : No
  71. Text
  72. ID                                       : 4
  73. Format                                   : UTF-8
  74. Codec ID                                 : S_TEXT/UTF8
  75. Codec ID/Info                            : UTF-8 Plain Text
  76. Duration                                 : 1 h 18 min
  77. Bit rate                                 : 53 b/s
  78. Count of elements                        : 966
  79. Stream size                              : 30.8 KiB (0%)
  80. Language                                 : English
  81. Default                                  : Yes
  82. Forced                                   : No
  83. Menu
  84. 00:00:00.000                             : en:1. Main Titles
  85. 00:07:10.138                             : en:2. Interference
  86. 00:10:35.468                             : en:3. Last Message
  87. 00:13:36.524                             : en:4. Will-O\'-The Wisp
  88. 00:19:53.109                             : en:5. Run For It
  89. 00:28:01.096                             : en:6. Heavy Artillery
  90. 00:35:40.096                             : en:7. On The Move
  91. 00:42:28.337                             : en:8. Unpredictable
  92. 00:49:41.061                             : en:9. Z Plan
  93. 00:55:47.636                             : en:10. Mass Destruction
  94. 01:03:01.736                             : en:11. Take Her Away
  95. 01:10:00.738                             : en:12. In Flames
复制代码



                                       
                                       

                                       
                                       
                                       




回复

使用道具 举报

懒得打字嘛,点击右侧快捷回复 【右侧内容,后台自定义】
您需要登录后才可以回帖 登录 | 立即加入

本版积分规则

Archiver|小黑屋| 蓝光电影网 |网站地图

Copyright © 2021 Comsenz Inc. Powered by 蓝光电影网

蓝光电影网

本站内容由用户自主分享和转载自互联网,转载目的在于传递更多信息,并不代表本网赞同其观点和对其真实性负责。

如有侵权、违反国家法律政策行为,请联系我们,我们会第一时间及时清除和处理!

举报反馈邮箱:[email protected]

快速回复 返回顶部 返回列表