找回密码

蓝光电影网

查看: 9|回复: 0

[其他] 爱探险的朵拉:消失的黄金城 Dora.and.the.Lost.City.of.Gold.2019.720p.BluRay.x264.DTS-FGT 5.02GB

[复制链接]
蓝光币
382
发表于 2019-11-11 06:54:28 | 显示全部楼层 |阅读模式


◎译  名 爱探险的朵拉:消失的黄金城 / Dora the Explorer / 朵拉与失落的黄金城 / 爱探险的Dora:勇闯黄金迷城(港) / 爱探险的朵拉
◎片  名 Dora and the Lost City of Gold
◎年  代 2019
◎产  地 美国
◎类  别 冒险
◎语  言 英语
◎上映日期 2019-08-09(美国)
◎IMDb评分  6.1/10 from 6012 users
◎IMDb链接  https://www.imdb.com/title/tt7547410
◎豆瓣评分 5.5/10 from 218 users
◎豆瓣链接 https://movie.douban.com/subject/27179713/
◎片  长 100分钟
◎导  演 詹姆斯·博宾 James Bobin
◎编  剧 马修·罗宾逊 Matthew Robinson / 尼古拉斯·斯托勒 Nicholas Stoller / 克里斯·吉福德 Chris Gifford / 瓦莱丽·沃尔什 Valerie Walsh / 埃里克·韦纳 Eric Weiner / 汤姆·惠勒 Tom Wheeler
◎主  演 伊莎贝拉·莫奈 Isabela Moner
       迈克尔·佩纳 Michael Pe?a
       本尼西奥·德尔·托罗 Benicio del Toro
       考莉安卡·基尔彻 Q'orianka Kilcher
       伊娃·朗格利亚 Eva Longoria
       特穆拉·莫里森 Temuera Morrison
       欧赫尼奥·德尔维斯 Eugenio Derbez
       玛德琳·麦登 Madeleine Madden
       艾德里安娜·巴拉扎 Adriana Barraza
       伊瑟拉·维加 Isela Vega
       克里斯托弗·卡比 Christopher Kirby
       尼古拉斯·库姆 Nicholas Coombe
       布拉登·刘易斯 Braden Lewis
       杰弗里·沃尔伯格 Jeffrey Wahlberg

◎标  签 冒险 | 美国 | 2019 | 爱探险的朵拉 | 奇异 | 魔幻 | 派拉蒙 | 搞笑
◎简  介  
  朵拉和怙恃一向生活在森林中,直到有天她的怙恃决议去寻觅传闻中失落的黄金城,而朵拉则被迫回到都会,与表哥迭戈一家人同住,起头了一段啼笑皆非的高中生活。
  在一次黉舍构造的参观活动中,朵拉和朋友们被奥秘人士绑架,他们被带到了森林深处。回到森林的朵拉,展现出了比其他人更强的保存才能。她率领着小猴布茨,表哥迭戈,奥秘的森林专家和一群毫无田野经历的朋友们起头了一段惊险的冒险旅程。他们不但要在幻化莫测的森林中保存下来,更要从好人手中救出朵拉的怙恃,破解黄金城的奥秘。
  1. Video
  2. ID                                       : 1
  3. Format                                   : AVC
  4. Format/Info                              : Advanced Video Codec
  5. Format profile                           : [email protected]
  6. Format settings                          : CABAC / 4 Ref Frames
  7. Format settings, CABAC                   : Yes
  8. Format settings, Reference frames        : 4 frames
  9. Codec ID                                 : V_MPEG4/ISO/AVC
  10. Duration                                 : 1 h 42 min
  11. Bit rate                                 : 5 500 kb/s
  12. Width                                    : 1 280 pixels
  13. Height                                   : 720 pixels
  14. Display aspect ratio                     : 16:9
  15. Frame rate mode                          : Constant
  16. Frame rate                               : 23.976 (24000/1001) FPS
  17. Color space                              : YUV
  18. Chroma subsampling                       : 4:2:0
  19. Bit depth                                : 8 bits
  20. Scan type                                : Progressive
  21. Bits/(Pixel*Frame)                       : 0.249
  22. Stream size                              : 3.94 GiB (78%)
  23. Title                                    : Dora.and.the.Lost.City.of.Gold.2019.720p.BluRay.x264.DTS-FGT
  24. Writing library                          : x264 core 148 r2795M aaa9aa8
  25. Encoding settings                        : cabac=1 / ref=4 / deblock=1:-2:-2 / analyse=0x3:0x113 / me=umh / subme=9 / psy=1 / psy_rd=1.00:0.15 / mixed_ref=1 / me_range=16 / chroma_me=1 / trellis=2 / 8x8dct=1 / cqm=0 / deadzone=21,11 / fast_pskip=1 / chroma_qp_offset=-3 / threads=72 / lookahead_threads=3 / sliced_threads=0 / nr=0 / decimate=1 / interlaced=0 / bluray_compat=0 / constrained_intra=0 / bframes=3 / b_pyramid=2 / b_adapt=1 / b_bias=0 / direct=3 / weightb=1 / open_gop=0 / weightp=2 / keyint=250 / keyint_min=25 / scenecut=40 / intra_refresh=0 / rc_lookahead=50 / rc=2pass / mbtree=1 / bitrate=5500 / ratetol=1.0 / qcomp=0.60 / qpmin=0 / qpmax=69 / qpstep=4 / cplxblur=20.0 / qblur=0.5 / vbv_maxrate=31250 / vbv_bufsize=31250 / nal_hrd=none / filler=0 / ip_ratio=1.40 / aq=1:1.00
  26. Language                                 : English
  27. Default                                  : Yes
  28. Forced                                   : No
  29. Audio
  30. ID                                       : 2
  31. Format                                   : DTS
  32. Format/Info                              : Digital Theater Systems
  33. Codec ID                                 : A_DTS
  34. Duration                                 : 1 h 42 min
  35. Bit rate mode                            : Constant
  36. Bit rate                                 : 1 509 kb/s
  37. Channel(s)                               : 6 channels
  38. Channel layout                           : C L R Ls Rs LFE
  39. Sampling rate                            : 48.0 kHz
  40. Frame rate                               : 93.750 FPS (512 SPF)
  41. Bit depth                                : 24 bits
  42. Compression mode                         : Lossy
  43. Stream size                              : 1.08 GiB (22%)
  44. Title                                    : Dora.and.the.Lost.City.of.Gold.2019.720p.BluRay.x264.DTS-FGT
  45. Language                                 : English
  46. Default                                  : Yes
  47. Forced                                   : No
  48. Text #1
  49. ID                                       : 3
  50. Format                                   : UTF-8
  51. Codec ID                                 : S_TEXT/UTF8
  52. Codec ID/Info                            : UTF-8 Plain Text
  53. Duration                                 : 1 h 32 min
  54. Bit rate                                 : 0 b/s
  55. Count of elements                        : 24
  56. Stream size                              : 553 Bytes (0%)
  57. Title                                    : FORCED
  58. Language                                 : English
  59. Default                                  : Yes
  60. Forced                                   : Yes
  61. Text #2
  62. ID                                       : 4
  63. Format                                   : UTF-8
  64. Codec ID                                 : S_TEXT/UTF8
  65. Codec ID/Info                            : UTF-8 Plain Text
  66. Duration                                 : 1 h 37 min
  67. Bit rate                                 : 58 b/s
  68. Count of elements                        : 1393
  69. Stream size                              : 41.5 KiB (0%)
  70. Language                                 : English
  71. Default                                  : No
  72. Forced                                   : No
  73. Menu
  74. 00:00:00.000                             : en:Chapter 01
  75. 00:04:52.417                             : en:Chapter 02
  76. 00:09:49.088                             : en:Chapter 03
  77. 00:15:35.643                             : en:Chapter 04
  78. 00:20:26.767                             : en:Chapter 05
  79. 00:25:47.837                             : en:Chapter 06
  80. 00:35:15.780                             : en:Chapter 07
  81. 00:42:53.737                             : en:Chapter 08
  82. 00:47:13.664                             : en:Chapter 09
  83. 00:52:57.883                             : en:Chapter 10
  84. 00:55:41.463                             : en:Chapter 11
  85. 01:01:02.659                             : en:Chapter 12
  86. 01:06:11.384                             : en:Chapter 13
  87. 01:10:23.135                             : en:Chapter 14
  88. 01:13:51.885                             : en:Chapter 15
  89. 01:18:26.326                             : en:Chapter 16
  90. 01:22:39.496                             : en:Chapter 17
  91. 01:32:57.947                             : en:Chapter 18
  92. 01:38:30.404                             : en:Chapter 19
复制代码






                                       
                                       

                                       
                                       
                                       




回复

使用道具 举报

懒得打字嘛,点击右侧快捷回复 【右侧内容,后台自定义】
您需要登录后才可以回帖 登录 | 立即加入

本版积分规则

Archiver|小黑屋| 蓝光电影网 |网站地图

Copyright © 2021 Comsenz Inc. Powered by 蓝光电影网

蓝光电影网

本站内容由用户自主分享和转载自互联网,转载目的在于传递更多信息,并不代表本网赞同其观点和对其真实性负责。

如有侵权、违反国家法律政策行为,请联系我们,我们会第一时间及时清除和处理!

举报反馈邮箱:[email protected]

快速回复 返回顶部 返回列表