找回密码

蓝光电影网

查看: 10|回复: 0

[恐怖] 别西卜 Belzebuth.2017.1080p.BluRay.x264.DD5.1-NING 10.05GB

[复制链接]
蓝光币
426
发表于 2021-2-3 11:13:28 | 显示全部楼层 |阅读模式


◎译  名 别西卜
◎片  名 Belzebuth
◎年  代 2018
◎产  地 墨西哥
◎类  别 可骇
◎语  言 英语,西班牙语
◎上映日期 2018-04-04(布鲁塞尔奇异电影节) / 2019-01-11(墨西哥)
◎IMDb评分  6/10 from 2108 users
◎IMDb链接  https://www.imdb.com/title/tt3662308/
◎豆瓣评分 6.3/10 from 387 users
◎豆瓣链接 https://movie.douban.com/subject/27141900/
◎片  长 104分钟
◎主  演 塔特·艾灵顿 Tate Ellington
       托宾·贝尔 Tobin Bell
       华金·科西奥 Joaquín Cosio
       Giovanna Zacarías
       Aida López
       何塞·赛法米 José Sefami
       诺玛·安吉里卡 Norma Angélica
       奥罗拉·吉尔 Aurora Gil
       Alondra Benitez
       尤恩·帕尔多 Yunuen Pardo
       利亚姆·维拉 Liam Villa
       Enoc Lea?o
◎标  签 可骇 | 驱魔 | 宗教 | 墨西哥 | 惊悚 | 灵异 | 恶魔/驱魔系列 | 2018
◎简  介


  故事发生在美国墨西哥鸿沟,警方观察一路儿童奥秘灭亡事务,居然发现与别西卜有关联,由此轰动了梵蒂冈,一场驱魔可以处理所以的题目吗?
  1. Video
  2. ID                                       : 1
  3. Format                                   : AVC
  4. Format/Info                              : Advanced Video Codec
  5. Format profile                           : [email protected]
  6. Format settings                          : CABAC / 5 Ref Frames
  7. Format settings, CABAC                   : Yes
  8. Format settings, Reference frames        : 5 frames
  9. Codec ID                                 : V_MPEG4/ISO/AVC
  10. Duration                                 : 1 h 53 min
  11. Bit rate                                 : 12.3 Mb/s
  12. Width                                    : 1 920 pixels
  13. Height                                   : 802 pixels
  14. Display aspect ratio                     : 2.40:1
  15. Frame rate mode                          : Constant
  16. Frame rate                               : 23.976 (24000/1001/189150) FPS
  17. Color space                              : YUV
  18. Chroma subsampling                       : 4:2:0
  19. Bit depth                                : 8 bits
  20. Scan type                                : Progressive
  21. Bits/(Pixel*Frame)                       : 0.332
  22. Stream size                              : 9.73 GiB (97%)
  23. Writing library                          : x264 core 157 r2935 545de2f
  24. Encoding settings                        : cabac=1 / ref=5 / deblock=1:-3:-3 / analyse=0x3:0x133 / me=umh / subme=10 / psy=1 / psy_rd=1.00:0.00 / mixed_ref=1 / me_range=32 / chroma_me=1 / trellis=2 / 8x8dct=1 / cqm=0 / deadzone=21,11 / fast_pskip=0 / chroma_qp_offset=-2 / threads=25 / lookahead_threads=6 / sliced_threads=0 / nr=0 / decimate=0 / interlaced=0 / bluray_compat=0 / constrained_intra=0 / bframes=16 / b_pyramid=2 / b_adapt=2 / b_bias=0 / direct=3 / weightb=1 / open_gop=0 / weightp=2 / keyint=240 / keyint_min=24 / scenecut=40 / intra_refresh=0 / rc_lookahead=60 / rc=crf / mbtree=0 / crf=15.2 / qcomp=0.60 / qpmin=0 / qpmax=69 / qpstep=4 / vbv_maxrate=62500 / vbv_bufsize=78125 / crf_max=0.0 / nal_hrd=none / filler=0 / ip_ratio=1.40 / pb_ratio=1.30 / aq=2:1.00
  25. Default                                  : Yes
  26. Forced                                   : No
  27. Color range                              : Limited
  28. Color primaries                          : BT.709
  29. Transfer characteristics                 : BT.709
  30. Matrix coefficients                      : BT.709
  31. Audio
  32. ID                                       : 2
  33. Format                                   : AC-3
  34. Format/Info                              : Audio Coding 3
  35. Commercial name                          : Dolby Digital
  36. Codec ID                                 : A_AC3
  37. Duration                                 : 1 h 53 min
  38. Bit rate mode                            : Constant
  39. Bit rate                                 : 384 kb/s
  40. Channel(s)                               : 6 channels
  41. Channel layout                           : L R C LFE Ls Rs
  42. Sampling rate                            : 48.0 kHz
  43. Frame rate                               : 31.250 FPS (1536 SPF)
  44. Compression mode                         : Lossy
  45. Stream size                              : 312 MiB (3%)
  46. Language                                 : Spanish
  47. Service kind                             : Complete Main
  48. Default                                  : Yes
  49. Forced                                   : No
  50. Text #1
  51. ID                                       : 3
  52. Format                                   : UTF-8
  53. Codec ID                                 : S_TEXT/UTF8
  54. Codec ID/Info                            : UTF-8 Plain Text
  55. Duration                                 : 1 h 40 min
  56. Bit rate                                 : 16 b/s
  57. Count of elements                        : 422
  58. Stream size                              : 12.0 KiB (0%)
  59. Title                                    : SRT
  60. Language                                 : English
  61. Default                                  : Yes
  62. Forced                                   : No
  63. Text #2
  64. ID                                       : 4
  65. Format                                   : PGS
  66. Muxing mode                              : zlib
  67. Codec ID                                 : S_HDMV/PGS
  68. Codec ID/Info                            : Picture based subtitle format used on BDs/HD-DVDs
  69. Duration                                 : 1 h 40 min
  70. Bit rate                                 : 8 363 b/s
  71. Count of elements                        : 848
  72. Stream size                              : 6.02 MiB (0%)
  73. Language                                 : English
  74. Default                                  : No
  75. Forced                                   : No
  76. Text #3
  77. ID                                       : 5
  78. Format                                   : PGS
  79. Muxing mode                              : zlib
  80. Codec ID                                 : S_HDMV/PGS
  81. Codec ID/Info                            : Picture based subtitle format used on BDs/HD-DVDs
  82. Duration                                 : 1 h 44 min
  83. Bit rate                                 : 11.8 kb/s
  84. Count of elements                        : 1126
  85. Stream size                              : 8.83 MiB (0%)
  86. Language                                 : Spanish
  87. Default                                  : No
  88. Forced                                   : No
  89. Menu
  90. 00:00:00.000                             : en:Chapter 01 (Why did the Vatican really expel you?)
  91. 00:01:54.906                             : en:Chapter 02 (Te vamos a estar esperando)
  92. 00:07:27.781                             : en:Chapter 03 (El penúltimo de la derecha)
  93. 00:10:33.132                             : en:Chapter 04 (So?é feo)
  94. 00:17:39.934                             : en:Chapter 05 (?Cómo eran los tatuajes?)
  95. 00:19:52.441                             : en:Chapter 06 (I want to be back by breakfast)
  96. 00:23:51.013                             : en:Chapter 07 (El narco no opera así, Demetrio)
  97. 00:30:03.927                             : en:Chapter 08 (Somos policías, no pendejos)
  98. 00:34:29.693                             : en:Chapter 09 (He wants to go to a fortune teller)
  99. 00:40:29.677                             : en:Chapter 10 (Things are going to get worse)
  100. 00:45:35.816                             : en:Chapter 11 (En México hasta los ateos son creyentes)
  101. 00:48:21.482                             : en:Chapter 12 (Did I scare you, my children?)
  102. 01:01:33.189                             : en:Chapter 13 (There is a divine plan)
  103. 01:07:38.763                             : en:Chapter 14 (It is a narco tunnel)
  104. 01:16:27.666                             : en:Chapter 15 (Everyone wants something)
  105. 01:24:27.062                             : en:Chapter 16 (?Sácale los ojos!)
  106. 01:28:47.614                             : en:Chapter 17 (Do not stop praying)
  107. 01:36:13.726                             : en:Chapter 18 (Lord Belzebuth!)
  108. 01:41:51.689                             : en:Chapter 19 (The blood of the boy on the dagger)
  109. 01:45:15.518                             : en:Chapter 20 (Créditos finales)
复制代码




                                       
                                       

                                       
                                       
                                       




回复

使用道具 举报

懒得打字嘛,点击右侧快捷回复 【右侧内容,后台自定义】
您需要登录后才可以回帖 登录 | 立即加入

本版积分规则

Archiver|小黑屋| 蓝光电影网 |网站地图

Copyright © 2021 Comsenz Inc. Powered by 蓝光电影网

蓝光电影网

本站内容由用户自主分享和转载自互联网,转载目的在于传递更多信息,并不代表本网赞同其观点和对其真实性负责。

如有侵权、违反国家法律政策行为,请联系我们,我们会第一时间及时清除和处理!

举报反馈邮箱:[email protected]

快速回复 返回顶部 返回列表