找回密码

蓝光电影网

查看: 12|回复: 0

[惊悚] 摊牌 Shade.2003.720p.BluRay.x264-MiMiC 5.57GB

[复制链接]
蓝光币
382
发表于 2021-4-7 16:32:17 | 显示全部楼层 |阅读模式


◎译  名 摊牌
◎片  名 Shade
◎年  代 2003
◎产  地 美国
◎类  别 惊悚 / 犯罪
◎语  言 英语
◎上映日期 2003-05-18
◎IMDb评分  6.3/10 from 12165 users
◎IMDb链接  https://www.imdb.com/title/tt0323939/
◎豆瓣评分 6.7/10 from 223 users
◎豆瓣链接 https://movie.douban.com/subject/1766680/
◎片  长 95 分钟
◎主  演 西尔维斯特·史泰龙 Sylvester Stallone
       梅兰尼·格里菲斯 Melanie Griffith
       加布里埃尔·伯恩 Gabriel Byrne
       Joe Nicolo
       Carl Mazzocone Sr.
       塔比瑟·史蒂文斯 Tabitha Stevens
       罗德尼·罗兰德 Rodney Rowland
       大卫·普鲁德汉姆 David Purdham
       Heath Centazzo
       埃里卡·娜娜 Erika Nann
       B-Real
       Greg Suddeth
       罗杰·格午埃文·史姑娘 Roger Guenveur Smith
       Adam Grace
       李心敏 Xinmin Li
       Sean Stanek
       Mick Rossi
       Veronica Grey
       Joel Manning
       Tawny Roberts
       Jennifer Burgess-Keene
       杰森·切尔博 Jason Cerbone
       托尼·伯顿 Tony Burton
       Bret Anthony
       小马克·布恩 Mark Boone Junior
       Carl Mazzocone
       弗兰克·梅德拉诺 Frank Medrano
       格伦·普拉默 Glenn Plummer
       博·霍普金斯 Bo Hopkins
       哈尔·霍尔布鲁克 Hal Holbrook
       杰米·福克斯 Jamie Foxx
       斯图尔特·汤森德 Stuart Townsend
       查尔斯·罗基特 Charles Rocket
       Ted Hartley
       迪娜·梅瑞尔 Dina Merrill
       坦迪·牛顿 Thandiwe Newton
       帕特里克·波查 Patrick Bauchau
       迈克尔·多恩 Michael Dorn
       泰·爱兰德 Trae Ireland
◎标  签 美国 | 悬疑 | 赌博 | 犯罪 | 美国电影 | 剧情 | 2003 | 电影
◎简  介


  出没在洛杉矶酒吧,夜总会的扑克老千天下里,三名行骗高手各怀鬼胎预备大显神通,当他们将高额赌注押宝鄙人一头肥羊“THE DEAN”身上时,不意却卷入连串黑道复仇杀机中难以脱身,到底谁在骗谁?水能满身而退?不到最初一秒没法预知真相。
  1. Video
  2. ID                                       : 1
  3. Format                                   : AVC
  4. Format/Info                              : Advanced Video Codec
  5. Format profile                           : [email protected]
  6. Format settings                          : CABAC / 8 Ref Frames
  7. Format settings, CABAC                   : Yes
  8. Format settings, Reference frames        : 8 frames
  9. Codec ID                                 : V_MPEG4/ISO/AVC
  10. Duration                                 : 1 h 42 min
  11. Bit rate                                 : 7 163 kb/s
  12. Width                                    : 1 280 pixels
  13. Height                                   : 544 pixels
  14. Display aspect ratio                     : 2.35:1
  15. Frame rate mode                          : Constant
  16. Frame rate                               : 23.976 (24000/1001/189150) FPS
  17. Color space                              : YUV
  18. Chroma subsampling                       : 4:2:0
  19. Bit depth                                : 8 bits
  20. Scan type                                : Progressive
  21. Bits/(Pixel*Frame)                       : 0.429
  22. Stream size                              : 5.11 GiB (92%)
  23. Writing library                          : x264 core 161 r3048 b86ae3c
  24. Encoding settings                        : cabac=1 / ref=8 / deblock=1:0:0 / analyse=0x3:0x133 / me=umh / subme=9 / psy=1 / psy_rd=1.00:0.00 / mixed_ref=1 / me_range=16 / chroma_me=1 / trellis=2 / 8x8dct=1 / cqm=0 / deadzone=21,11 / fast_pskip=0 / chroma_qp_offset=-2 / threads=17 / lookahead_threads=1 / sliced_threads=0 / nr=0 / decimate=0 / interlaced=0 / bluray_compat=0 / constrained_intra=0 / bframes=3 / b_pyramid=2 / b_adapt=2 / b_bias=0 / direct=3 / weightb=1 / open_gop=0 / weightp=2 / keyint=240 / keyint_min=23 / scenecut=40 / intra_refresh=0 / rc=crf / mbtree=0 / crf=17.4 / qcomp=0.60 / qpmin=0 / qpmax=69 / qpstep=4 / ip_ratio=1.40 / pb_ratio=1.30 / aq=1:1.00
  25. Default                                  : Yes
  26. Forced                                   : No
  27. Color range                              : Limited
  28. Matrix coefficients                      : BT.709

  29. Audio
  30. ID                                       : 2
  31. Format                                   : AC-3
  32. Format/Info                              : Audio Coding 3
  33. Commercial name                          : Dolby Digital
  34. Codec ID                                 : A_AC3
  35. Duration                                 : 1 h 42 min
  36. Bit rate mode                            : Constant
  37. Bit rate                                 : 640 kb/s
  38. Channel(s)                               : 6 channels
  39. Channel layout                           : L R C LFE Ls Rs
  40. Sampling rate                            : 48.0 kHz
  41. Frame rate                               : 31.250 FPS (1536 SPF)
  42. Compression mode                         : Lossy
  43. Stream size                              : 467 MiB (8%)
  44. Language                                 : English
  45. Service kind                             : Complete Main
  46. Default                                  : Yes
  47. Forced                                   : No

  48. Text #1
  49. ID                                       : 3
  50. Format                                   : PGS
  51. Muxing mode                              : zlib
  52. Codec ID                                 : S_HDMV/PGS
  53. Codec ID/Info                            : Picture based subtitle format used on BDs/HD-DVDs
  54. Duration                                 : 1 h 41 min
  55. Bit rate                                 : 28.8 kb/s
  56. Count of elements                        : 4255
  57. Stream size                              : 21.0 MiB (0%)
  58. Language                                 : English
  59. Default                                  : Yes
  60. Forced                                   : No

  61. Text #2
  62. ID                                       : 4
  63. Format                                   : PGS
  64. Muxing mode                              : zlib
  65. Codec ID                                 : S_HDMV/PGS
  66. Codec ID/Info                            : Picture based subtitle format used on BDs/HD-DVDs
  67. Duration                                 : 1 h 36 min
  68. Bit rate                                 : 24.4 kb/s
  69. Count of elements                        : 2793
  70. Stream size                              : 16.8 MiB (0%)
  71. Language                                 : French
  72. Default                                  : No
  73. Forced                                   : No

  74. Menu
  75. 00:00:00.000                             : en:Chapter 01
  76. 00:06:45.655                             : en:Chapter 02
  77. 00:14:54.977                             : en:Chapter 03
  78. 00:21:46.347                             : en:Chapter 04
  79. 00:32:07.342                             : en:Chapter 05
  80. 00:43:45.832                             : en:Chapter 06
  81. 00:51:41.682                             : en:Chapter 07
  82. 01:01:59.090                             : en:Chapter 08
  83. 01:07:56.573                             : en:Chapter 09
  84. 01:20:12.182                             : en:Chapter 10
  85. 01:33:19.177                             : en:Chapter 11
  86. 01:37:32.722                             : en:Chapter 12
复制代码




                                       
                                       

                                       
                                       
                                       




回复

使用道具 举报

懒得打字嘛,点击右侧快捷回复 【右侧内容,后台自定义】
您需要登录后才可以回帖 登录 | 立即加入

本版积分规则

Archiver|小黑屋| 蓝光电影网 |网站地图

Copyright © 2021 Comsenz Inc. Powered by 蓝光电影网

蓝光电影网

本站内容由用户自主分享和转载自互联网,转载目的在于传递更多信息,并不代表本网赞同其观点和对其真实性负责。

如有侵权、违反国家法律政策行为,请联系我们,我们会第一时间及时清除和处理!

举报反馈邮箱:[email protected]

快速回复 返回顶部 返回列表