找回密码

蓝光电影网

查看: 23|回复: 0

[恐怖] 圣人莫德/暗黑圣女 Saint.Maud.2019.1080p.BluRay.x264.DTS-FGT 7.67GB

[复制链接]
蓝光币
386
发表于 2021-2-2 15:55:37 | 显示全部楼层 |阅读模式


◎译  名 圣人莫德/暗黑圣女(台)
◎片  名 Saint Maud
◎年  代 2019
◎产  地 英国
◎类  别 可骇
◎语  言 英语
◎上映日期 2019-09-05(多伦多电影节) / 2020-07-17(美国) / 2021-02-12(美国收集)
◎IMDb评分  7.1/10 from 2882 users
◎IMDb链接  https://www.imdb.com/title/tt7557108/
◎豆瓣评分 6.5/10 from 65 users
◎豆瓣链接 https://movie.douban.com/subject/34805216/
◎片  长 84分钟
◎导  演 罗斯·格拉斯 Rose Glass
◎编  剧 罗斯·格拉斯 Rose Glass
◎主  演 莫菲德·克拉克 Morfydd Clark
       詹妮弗·艾莉 Jennifer Ehle
       图尔洛夫·科维里 Turlough Convery
       莉莉·奈特 Lily Knight
       罗茜·桑塞姆 Rosie Sansom
       马库斯·赫顿 Marcus Hutton
       费丝·爱德华兹 Faith Edwards
       纲高向井 Takatsuna Mukai
◎标  签 可骇 | 惊悚 | 宗教 | 英国 | A24 | 英国电影 | 2020 | 电影
◎简  介


  莫德是一位年轻的宗教信徒,她的职业是私人护理员,她在拯救诱人的病人阿曼达的灵魂时,对其发生了极为危险的迷恋。
◎获奖情况
  第23届英国自力电影奖 ?(2020)
  最好英国自力电影(提名)
  最好导演(提名) 罗斯·格拉斯
  最好新人导演(提名) 罗斯·格拉斯
  最好编剧(提名) 罗斯·格拉斯
  最好女配角(提名) 莫菲德·克拉克
  最好女配角(提名) 詹妮弗·艾莉
  最好新人编剧(提名) 罗斯·格拉斯
  制片冲破(提名)
  最好选角(提名)
  最好摄影
  最好打扮设想(提名)
  最好剪辑(提名)
  最好化装与发型设想(提名)
  最好音乐(提名)
  最好艺术指导(提名)
  最好音效(提名)
  最好视效(提名)
  
  第41届伦敦影评人协会奖 ?(2021)
  年度电影(提名)
  年度导演(提名) 罗斯·格拉斯
  年度英国/爱尔兰电影(提名)
  年度编剧(提名) 罗斯·格拉斯
  年度女配角(提名) 莫菲德·克拉克
  年度女配角(提名) 詹妮弗·艾莉
  年度英国/爱尔兰女演员(提名) 莫菲德·克拉克
  年度冲破英国/爱尔兰电影人(提名) 罗斯·格拉斯
  
  第24届美国在线影评人协会奖 ?(2021)
  最好非北美上映影片
  1. Video
  2. ID                                       : 1
  3. Format                                   : AVC
  4. Format/Info                              : Advanced Video Codec
  5. Format profile                           : [email protected]
  6. Format settings                          : CABAC / 4 Ref Frames
  7. Format settings, CABAC                   : Yes
  8. Format settings, Reference frames        : 4 frames
  9. Codec ID                                 : V_MPEG4/ISO/AVC
  10. Duration                                 : 1 h 24 min
  11. Bit rate                                 : 11.5 Mb/s
  12. Width                                    : 1 920 pixels
  13. Height                                   : 804 pixels
  14. Display aspect ratio                     : 2.40:1
  15. Frame rate mode                          : Constant
  16. Frame rate                               : 24.000 FPS
  17. Color space                              : YUV
  18. Chroma subsampling                       : 4:2:0
  19. Bit depth                                : 8 bits
  20. Scan type                                : Progressive
  21. Bits/(Pixel*Frame)                       : 0.310
  22. Stream size                              : 6.78 GiB (88%)
  23. Writing library                          : x264 core 148 r2748 97eaef2
  24. Encoding settings                        : cabac=1 / ref=4 / deblock=1:-2:-2 / analyse=0x3:0x113 / me=umh / subme=9 / psy=1 / psy_rd=1.00:0.15 / mixed_ref=1 / me_range=16 / chroma_me=1 / trellis=2 / 8x8dct=1 / cqm=0 / deadzone=21,11 / fast_pskip=1 / chroma_qp_offset=-3 / threads=72 / lookahead_threads=3 / sliced_threads=0 / nr=0 / decimate=1 / interlaced=0 / bluray_compat=0 / constrained_intra=0 / bframes=3 / b_pyramid=2 / b_adapt=1 / b_bias=0 / direct=3 / weightb=1 / open_gop=0 / weightp=2 / keyint=250 / keyint_min=25 / scenecut=40 / intra_refresh=0 / rc_lookahead=50 / rc=2pass / mbtree=1 / bitrate=11500 / ratetol=1.0 / qcomp=0.60 / qpmin=0 / qpmax=69 / qpstep=4 / cplxblur=20.0 / qblur=0.5 / vbv_maxrate=31250 / vbv_bufsize=31250 / nal_hrd=none / filler=0 / ip_ratio=1.40 / aq=1:1.00
  25. Language                                 : English
  26. Default                                  : Yes
  27. Forced                                   : No
  28. Audio
  29. ID                                       : 2
  30. Format                                   : DTS
  31. Format/Info                              : Digital Theater Systems
  32. Codec ID                                 : A_DTS
  33. Duration                                 : 1 h 24 min
  34. Bit rate mode                            : Constant
  35. Bit rate                                 : 1 509 kb/s
  36. Channel(s)                               : 6 channels
  37. Channel layout                           : C L R Ls Rs LFE
  38. Sampling rate                            : 48.0 kHz
  39. Frame rate                               : 93.750 FPS (512 SPF)
  40. Bit depth                                : 24 bits
  41. Compression mode                         : Lossy
  42. Stream size                              : 911 MiB (12%)
  43. Title                                    : DTS 5.1
  44. Language                                 : English
  45. Default                                  : Yes
  46. Forced                                   : No
  47. Text
  48. ID                                       : 3
  49. Format                                   : UTF-8
  50. Codec ID                                 : S_TEXT/UTF8
  51. Codec ID/Info                            : UTF-8 Plain Text
  52. Duration                                 : 1 h 15 min
  53. Bit rate                                 : 29 b/s
  54. Count of elements                        : 567
  55. Stream size                              : 16.2 KiB (0%)
  56. Title                                    : English-SRT
  57. Language                                 : English
  58. Default                                  : Yes
  59. Forced                                   : No
  60. Menu
  61. 00:00:00.000                             : en:Chapter 01
  62. 00:06:40.958                             : en:Chapter 02
  63. 00:13:13.833                             : en:Chapter 03
  64. 00:18:36.750                             : en:Chapter 04
  65. 00:24:18.333                             : en:Chapter 05
  66. 00:30:39.583                             : en:Chapter 06
  67. 00:36:39.125                             : en:Chapter 07
  68. 00:43:20.666                             : en:Chapter 08
  69. 00:50:55.458                             : en:Chapter 09
  70. 00:57:53.875                             : en:Chapter 10
  71. 01:08:33.375                             : en:Chapter 11
  72. 01:15:49.125                             : en:Chapter 12
复制代码






                                       
                                       

                                       
                                       
                                       




回复

使用道具 举报

懒得打字嘛,点击右侧快捷回复 【右侧内容,后台自定义】
您需要登录后才可以回帖 登录 | 立即加入

本版积分规则

Archiver|小黑屋| 蓝光电影网 |网站地图

Copyright © 2021 Comsenz Inc. Powered by 蓝光电影网

蓝光电影网

本站内容由用户自主分享和转载自互联网,转载目的在于传递更多信息,并不代表本网赞同其观点和对其真实性负责。

如有侵权、违反国家法律政策行为,请联系我们,我们会第一时间及时清除和处理!

举报反馈邮箱:[email protected]

快速回复 返回顶部 返回列表