找回密码

蓝光电影网

查看: 33|回复: 0

[爱情] 昼行闪耀的流星 Daytime.Shooting.Star.2017.JAPANESE.1080p.BluRay.x264-WiKi 12.62GB

[复制链接]
蓝光币
382
发表于 2020-10-17 09:50:49 | 显示全部楼层 |阅读模式


◎译  名 昼行闪烁的流星/Daytime Shooting Star/划过青空的火流星/白天的流星(台)
◎片  名 ひるなかの流星
◎年  代 2017
◎产  地 日本
◎类  别 恋爱
◎语  言 日语
◎上映日期 2017-03-24(日本)
◎IMDb评分  6.8/10 from 467 users
◎IMDb链接  https://www.imdb.com/title/tt6078842/
◎豆瓣评分 6.4/10 from 6393 users
◎豆瓣链接 https://movie.douban.com/subject/26873577/
◎片  长 119分钟
◎导  演 新城毅彦 Takehiko Shinjo
◎编  剧 安达奈绪子 Naoko Adachi / 山森三香 Mika Yamamori
◎主  演 永野芽郁 Mei Nagano
       三浦翔平 Shohei Miura
       白滨亚岚 Alan Shirahama
       山本舞香 Maika Yamamoto
       西田尚美 Naomi Nishida
       佐藤隆太 Ry?ta Sat?
       石桥宇轮 Uwa Ishibashi
       大幡诗绘理 Shieri Ohata
       小野寺晃良 Akira Onodera
       玉川莲 Ren Tamagawa
◎标  签 日本 | 恋爱 | 青春 | 漫改 | 校园 | 2017 | 纯爱 | 漫画改编
◎简  介


  与谢野雀(永野芽郁 饰)自幼自在自在的发展在乡下,性情天真而又开畅。雀考上了位于东京的高中,这也就意味着,她要分开怙恃,前往这座富贵而又时髦的城市,单独起头新的生活。但是这生活在一路头似乎就并不顺遂,在前往叔叔家的路上,雀晕倒了,荣幸的是,她碰见了名为狮子尾五月(三 浦翔平 饰)的男人。雀惊奇的发现,狮子尾的后颈上有一颗似曾了解的痣。
  
  第二天来到黉舍,雀发现,狮子尾居然就是自己的班主任。以后,她还和邻座的马村大辉(白滨亚岚 饰)结下了一段友谊。随着时候的推移,雀和狮子尾以及大辉之间的关系渐渐暗昧起来,夹在两个汉子之间,雀不晓得该做出怎样的挑选。
  1. Video
  2. ID                                       : 1
  3. Format                                   : AVC
  4. Format/Info                              : Advanced Video Codec
  5. Format profile                           : [email protected]
  6. Format settings                          : CABAC / 4 Ref Frames
  7. Format settings, CABAC                   : Yes
  8. Format settings, Reference frames        : 4 frames
  9. Codec ID                                 : V_MPEG4/ISO/AVC
  10. Duration                                 : 1 h 58 min
  11. Bit rate                                 : 14.5 Mb/s
  12. Width                                    : 1 920 pixels
  13. Height                                   : 1 036 pixels
  14. Display aspect ratio                     : 1.85:1
  15. Frame rate mode                          : Constant
  16. Frame rate                               : 23.976 (24000/1001/189150) FPS
  17. Color space                              : YUV
  18. Chroma subsampling                       : 4:2:0
  19. Bit depth                                : 8 bits
  20. Scan type                                : Progressive
  21. Bits/(Pixel*Frame)                       : 0.304
  22. Stream size                              : 12.0 GiB (95%)
  23. Writing library                          : x264 core 142 r2431+42 c69a006 tMod [[email protected] X86_64]
  24. Encoding settings                        : cabac=1 / ref=4 / deblock=1:-3:-3 / analyse=0x3:0x133 / me=umh / subme=11 / psy=1 / fade_compensate=0.00 / psy_rd=1.05:0.15 / mixed_ref=1 / me_range=64 / chroma_me=1 / trellis=2 / 8x8dct=1 / cqm=0 / deadzone=21,11 / fast_pskip=0 / chroma_qp_offset=-1 / threads=12 / lookahead_threads=3 / sliced_threads=0 / nr=0 / decimate=0 / interlaced=0 / bluray_compat=0 / constrained_intra=0 / fgo=0 / bframes=10 / b_pyramid=2 / b_adapt=2 / b_bias=0 / direct=3 / weightb=1 / open_gop=0 / weightp=2 / keyint=250 / keyint_min=23 / scenecut=40 / intra_refresh=0 / rc_lookahead=80 / rc=2pass / mbtree=0 / bitrate=14500 / ratetol=1.0 / qcomp=0.65 / qpmin=0:0:0 / qpmax=69:69:69 / qpstep=4 / cplxblur=20.0 / qblur=0.5 / vbv_maxrate=50000 / vbv_bufsize=50000 / nal_hrd=none / filler=0 / ip_ratio=1.40 / pb_ratio=1.30 / aq=1:0.80 / aq-sensitivity=10.00 / aq-factor=1.00:1.00:1.00 / aq2=0 / aq3=0
  25. Language                                 : Japanese
  26. Default                                  : Yes
  27. Forced                                   : No
  28. Color range                              : Limited
  29. Matrix coefficients                      : BT.709

  30. Audio
  31. ID                                       : 2
  32. Format                                   : DTS
  33. Format/Info                              : Digital Theater Systems
  34. Codec ID                                 : A_DTS
  35. Duration                                 : 1 h 58 min
  36. Bit rate mode                            : Constant
  37. Bit rate                                 : 768 kb/s
  38. Channel(s)                               : 6 channels
  39. Channel layout                           : C L R Ls Rs LFE
  40. Sampling rate                            : 48.0 kHz
  41. Frame rate                               : 93.750 FPS (512 SPF)
  42. Bit depth                                : 24 bits
  43. Compression mode                         : Lossy
  44. Stream size                              : 650 MiB (5%)
  45. Language                                 : Japanese
  46. Default                                  : Yes
  47. Forced                                   : No

  48. Text
  49. ID                                       : 3
  50. Format                                   : UTF-8
  51. Codec ID                                 : S_TEXT/UTF8
  52. Codec ID/Info                            : UTF-8 Plain Text
  53. Duration                                 : 1 h 53 min
  54. Bit rate                                 : 45 b/s
  55. Count of elements                        : 1347
  56. Stream size                              : 38.0 KiB (0%)
  57. Language                                 : English
  58. Default                                  : Yes
  59. Forced                                   : No

  60. Menu
  61. 00:00:00.000                             : en:00:00:00.000
  62. 00:06:20.046                             : en:00:06:20.046
  63. 00:10:36.553                             : en:00:10:36.553
  64. 00:15:49.157                             : en:00:15:49.157
  65. 00:26:16.074                             : en:00:26:16.074
  66. 00:30:51.266                             : en:00:30:51.266
  67. 00:41:39.789                             : en:00:41:39.789
  68. 00:48:41.127                             : en:00:48:41.127
  69. 00:54:15.961                             : en:00:54:15.961
  70. 01:02:03.595                             : en:01:02:03.595
  71. 01:12:24.507                             : en:01:12:24.507
  72. 01:17:26.433                             : en:01:17:26.433
  73. 01:20:25.154                             : en:01:20:25.154
  74. 01:24:57.509                             : en:01:24:57.509
  75. 01:33:47.831                             : en:01:33:47.831
  76. 01:41:48.144                             : en:01:41:48.144
  77. 01:48:22.538                             : en:01:48:22.538
  78. 01:54:14.306                             : en:01:54:14.306
复制代码






                                       
                                       

                                       
                                       
                                       




回复

使用道具 举报

懒得打字嘛,点击右侧快捷回复 【右侧内容,后台自定义】
您需要登录后才可以回帖 登录 | 立即加入

本版积分规则

Archiver|小黑屋| 蓝光电影网 |网站地图

Copyright © 2021 Comsenz Inc. Powered by 蓝光电影网

蓝光电影网

本站内容由用户自主分享和转载自互联网,转载目的在于传递更多信息,并不代表本网赞同其观点和对其真实性负责。

如有侵权、违反国家法律政策行为,请联系我们,我们会第一时间及时清除和处理!

举报反馈邮箱:[email protected]

快速回复 返回顶部 返回列表